  0
SECTION
  2
HEADER
  9
$ACADVER
  1
AC1015
  9
$ACADMAINTVER
 70
     6
  9
$DWGCODEPAGE
  3
ANSI_1252
  9
$INSBASE
 10
0.0
 20
0.0
 30
0.0
  9
$EXTMIN
 10
0.0
 20
0.0
 30
0.0
  9
$EXTMAX
 10
44.0
 20
34.0
 30
0.0
  9
$LIMMIN
 10
0.0
 20
0.0
  9
$LIMMAX
 10
44.0
 20
34.0
  9
$ORTHOMODE
 70
     0
  9
$REGENMODE
 70
     1
  9
$FILLMODE
 70
     1
  9
$QTEXTMODE
 70
     0
  9
$MIRRTEXT
 70
     1
  9
$LTSCALE
 40
1.0
  9
$ATTMODE
 70
     1
  9
$TEXTSIZE
 40
0.3888888889
  9
$TRACEWID
 40
0.05
  9
$TEXTSTYLE
  7
Standard
  9
$CLAYER
  8
0
  9
$CELTYPE
  6
ByLayer
  9
$CECOLOR
 62
   256
  9
$CELTSCALE
 40
1.0
  9
$DISPSILH
 70
     0
  9
$DIMSCALE
 40
1.0
  9
$DIMASZ
 40
0.1041666667
  9
$DIMEXO
 40
0.0393700787
  9
$DIMDLI
 40
0.38
  9
$DIMRND
 40
0.0
  9
$DIMDLE
 40
0.0
  9
$DIMEXE
 40
0.0393700787
  9
$DIMTP
 40
0.0
  9
$DIMTM
 40
0.0
  9
$DIMTXT
 40
0.3888888889
  9
$DIMCEN
 40
0.09
  9
$DIMTSZ
 40
0.0
  9
$DIMTOL
 70
     0
  9
$DIMLIM
 70
     0
  9
$DIMTIH
 70
     1
  9
$DIMTOH
 70
     1
  9
$DIMSE1
 70
     0
  9
$DIMSE2
 70
     0
  9
$DIMTAD
 70
     1
  9
$DIMZIN
 70
     0
  9
$DIMBLK
  1

  9
$DIMASO
 70
     1
  9
$DIMSHO
 70
     1
  9
$DIMPOST
  1

  9
$DIMAPOST
  1

  9
$DIMALT
 70
     0
  9
$DIMALTD
 70
     2
  9
$DIMALTF
 40
25.4
  9
$DIMLFAC
 40
1.0
  9
$DIMTOFL
 70
     0
  9
$DIMTVP
 40
0.0
  9
$DIMTIX
 70
     0
  9
$DIMSOXD
 70
     0
  9
$DIMSAH
 70
     0
  9
$DIMBLK1
  1

  9
$DIMBLK2
  1

  9
$DIMSTYLE
  2
Standard
  9
$DIMCLRD
 70
     0
  9
$DIMCLRE
 70
     0
  9
$DIMCLRT
 70
     0
  9
$DIMTFAC
 40
1.0
  9
$DIMGAP
 40
0.06
  9
$DIMJUST
 70
     0
  9
$DIMSD1
 70
     0
  9
$DIMSD2
 70
     0
  9
$DIMTOLJ
 70
     1
  9
$DIMTZIN
 70
     0
  9
$DIMALTZ
 70
     0
  9
$DIMALTTZ
 70
     0
  9
$DIMUPT
 70
     0
  9
$DIMDEC
 70
     3
  9
$DIMTDEC
 70
     3
  9
$DIMALTU
 70
     2
  9
$DIMALTTD
 70
     2
  9
$DIMTXSTY
  7
Standard
  9
$DIMAUNIT
 70
     0
  9
$DIMADEC
 70
     2
  9
$DIMALTRND
 40
0.0
  9
$DIMAZIN
 70
     0
  9
$DIMDSEP
 70
    46
  9
$DIMATFIT
 70
     3
  9
$DIMFRAC
 70
     0
  9
$DIMLDRBLK
  1

  9
$DIMLUNIT
 70
     2
  9
$DIMLWD
 70
    -2
  9
$DIMLWE
 70
    -2
  9
$DIMTMOVE
 70
     0
  9
$LUNITS
 70
     2
  9
$LUPREC
 70
     3
  9
$SKETCHINC
 40
0.1
  9
$FILLETRAD
 40
0.5
  9
$AUNITS
 70
     0
  9
$AUPREC
 70
     2
  9
$MENU
  1
.
  9
$ELEVATION
 40
0.0
  9
$PELEVATION
 40
0.0
  9
$THICKNESS
 40
0.0
  9
$LIMCHECK
 70
     0
  9
$CHAMFERA
 40
0.5
  9
$CHAMFERB
 40
0.5
  9
$CHAMFERC
 40
1.0
  9
$CHAMFERD
 40
0.0
  9
$SKPOLY
 70
     0
  9
$TDCREATE
 40
2455762.449731053
  9
$TDUCREATE
 40
2455762.61639772
  9
$TDUPDATE
 40
2455762.449731065
  9
$TDUUPDATE
 40
2455762.616397731
  9
$TDINDWG
 40
0.0000000116
  9
$TDUSRTIMER
 40
0.0000000116
  9
$USRTIMER
 70
     1
  9
$ANGBASE
 50
0.0
  9
$ANGDIR
 70
     0
  9
$PDMODE
 70
     0
  9
$PDSIZE
 40
-1.0
  9
$PLINEWID
 40
0.0
  9
$SPLFRAME
 70
     0
  9
$SPLINETYPE
 70
     6
  9
$SPLINESEGS
 70
     8
  9
$HANDSEED
  5
57A
  9
$SURFTAB1
 70
     6
  9
$SURFTAB2
 70
     6
  9
$SURFTYPE
 70
     6
  9
$SURFU
 70
     6
  9
$SURFV
 70
     6
  9
$UCSBASE
  2

  9
$UCSNAME
  2

  9
$UCSORG
 10
0.0
 20
0.0
 30
0.0
  9
$UCSXDIR
 10
1.0
 20
0.0
 30
0.0
  9
$UCSYDIR
 10
0.0
 20
1.0
 30
0.0
  9
$UCSORTHOREF
  2

  9
$UCSORTHOVIEW
 70
     0
  9
$UCSORGTOP
 10
0.0
 20
0.0
 30
0.0
  9
$UCSORGBOTTOM
 10
0.0
 20
0.0
 30
0.0
  9
$UCSORGLEFT
 10
0.0
 20
0.0
 30
0.0
  9
$UCSORGRIGHT
 10
0.0
 20
0.0
 30
0.0
  9
$UCSORGFRONT
 10
0.0
 20
0.0
 30
0.0
  9
$UCSORGBACK
 10
0.0
 20
0.0
 30
0.0
  9
$PUCSBASE
  2

  9
$PUCSNAME
  2

  9
$PUCSORG
 10
0.0
 20
0.0
 30
0.0
  9
$PUCSXDIR
 10
1.0
 20
0.0
 30
0.0
  9
$PUCSYDIR
 10
0.0
 20
1.0
 30
0.0
  9
$PUCSORTHOREF
  2

  9
$PUCSORTHOVIEW
 70
     0
  9
$PUCSORGTOP
 10
0.0
 20
0.0
 30
0.0
  9
$PUCSORGBOTTOM
 10
0.0
 20
0.0
 30
0.0
  9
$PUCSORGLEFT
 10
0.0
 20
0.0
 30
0.0
  9
$PUCSORGRIGHT
 10
0.0
 20
0.0
 30
0.0
  9
$PUCSORGFRONT
 10
0.0
 20
0.0
 30
0.0
  9
$PUCSORGBACK
 10
0.0
 20
0.0
 30
0.0
  9
$USERI1
 70
     0
  9
$USERI2
 70
     0
  9
$USERI3
 70
     0
  9
$USERI4
 70
     0
  9
$USERI5
 70
     0
  9
$USERR1
 40
0.0
  9
$USERR2
 40
0.0
  9
$USERR3
 40
0.0
  9
$USERR4
 40
0.0
  9
$USERR5
 40
0.0
  9
$WORLDVIEW
 70
     1
  9
$SHADEDGE
 70
     3
  9
$SHADEDIF
 70
    70
  9
$TILEMODE
 70
     1
  9
$MAXACTVP
 70
    64
  9
$PINSBASE
 10
0.0
 20
0.0
 30
0.0
  9
$PLIMCHECK
 70
     0
  9
$PEXTMIN
 10
1.0000000000E+20
 20
1.0000000000E+20
 30
1.0000000000E+20
  9
$PEXTMAX
 10
-1.0000000000E+20
 20
-1.0000000000E+20
 30
-1.0000000000E+20
  9
$PLIMMIN
 10
0.0
 20
0.0
  9
$PLIMMAX
 10
12.0
 20
9.0
  9
$UNITMODE
 70
     0
  9
$VISRETAIN
 70
     1
  9
$PLINEGEN
 70
     0
  9
$PSLTSCALE
 70
     1
  9
$TREEDEPTH
 70
  3020
  9
$CMLSTYLE
  2
Standard
  9
$CMLJUST
 70
     0
  9
$CMLSCALE
 40
1.0
  9
$PROXYGRAPHICS
 70
     1
  9
$MEASUREMENT
 70
     0
  9
$CELWEIGHT
370
    -1
  9
$ENDCAPS
280
     0
  9
$JOINSTYLE
280
     0
  9
$LWDISPLAY
290
     1
  9
$INSUNITS
 70
     1
  9
$HYPERLINKBASE
  1

  9
$STYLESHEET
  1

  9
$XEDIT
290
     1
  9
$CEPSNTYPE
380
     0
  9
$PSTYLEMODE
290
     1
  9
$FINGERPRINTGUID
  2
{532989B5-CFEC-4B95-B3DB-C90765D8FA74}
  9
$VERSIONGUID
  2
{FAEB1C32-E019-11D5-929B-00C0DF256EC4}
  9
$EXTNAMES
290
     1
  9
$PSVPSCALE
 40
0.0
  9
$OLESTARTUP
290
     0
  0
ENDSEC
  0
SECTION
  2
CLASSES
  0
CLASS
  1
ACDBDICTIONARYWDFLT
  2
AcDbDictionaryWithDefault
  3
ObjectDBX Classes
 90
        0
280
     0
281
     0
  0
CLASS
  1
VISUALSTYLE
  2
AcDbVisualStyle
  3
ObjectDBX Classes
 90
     4095
280
     0
281
     0
  0
CLASS
  1
MATERIAL
  2
AcDbMaterial
  3
ObjectDBX Classes
 90
     1153
280
     0
281
     0
  0
CLASS
  1
SCALE
  2
AcDbScale
  3
ObjectDBX Classes
 90
     1153
280
     0
281
     0
  0
CLASS
  1
DICTIONARYVAR
  2
AcDbDictionaryVar
  3
ObjectDBX Classes
 90
        0
280
     0
281
     0
  0
CLASS
  1
ACDBPLACEHOLDER
  2
AcDbPlaceHolder
  3
ObjectDBX Classes
 90
        0
280
     0
281
     0
  0
CLASS
  1
LAYOUT
  2
AcDbLayout
  3
ObjectDBX Classes
 90
        0
280
     0
281
     0
  0
ENDSEC
  0
SECTION
  2
TABLES
  0
TABLE
  2
VPORT
  5
8
330
0
100
AcDbSymbolTable
 70
     1
  0
VPORT
  5
29
330
8
100
AcDbSymbolTableRecord
100
AcDbViewportTableRecord
  2
*Active
 70
     0
 10
0.0
 20
0.0
 11
1.0
 21
1.0
 12
22.0
 22
17.0
 13
0.0
 23
0.0
 14
0.5
 24
0.5
 15
0.5
 25
0.5
 16
0.0
 26
0.0
 36
1.0
 17
0.0
 27
0.0
 37
0.0
 40
34.0
 41
1.2941176471
 42
50.0
 43
0.0
 44
0.0
 50
0.0
 51
0.0
 71
     0
 72
  2000
 73
     1
 74
     3
 75
     0
 76
     0
 77
     0
 78
     0
281
     0
 65
     1
110
0.0
120
0.0
130
0.0
111
1.0
121
0.0
131
0.0
112
0.0
122
1.0
132
0.0
 79
     0
146
0.0
  0
ENDTAB
  0
TABLE
  2
LTYPE
  5
5
330
0
100
AcDbSymbolTable
 70
     6
  0
LTYPE
  5
14
330
5
100
AcDbSymbolTableRecord
100
AcDbLinetypeTableRecord
  2
ByBlock
 70
     0
  3

 72
    65
 73
     0
 40
0.0
  0
LTYPE
  5
15
330
5
100
AcDbSymbolTableRecord
100
AcDbLinetypeTableRecord
  2
ByLayer
 70
     0
  3

 72
    65
 73
     0
 40
0.0
  0
LTYPE
  5
16
330
5
100
AcDbSymbolTableRecord
100
AcDbLinetypeTableRecord
  2
Continuous
 70
     0
  3
Solid line
 72
    65
 73
     0
 40
0.0
  0
LTYPE
  5
3F
330
5
100
AcDbSymbolTableRecord
100
AcDbLinetypeTableRecord
  2
HIDDEN
 70
     0
  3
Hidden __ __ __ __ __ __ __ __ __ __ __ __ __ __
 72
    65
 73
     2
 40
0.075
 49
0.05
 74
     0
 49
-0.025
 74
     0
  0
LTYPE
  5
40
330
5
100
AcDbSymbolTableRecord
100
AcDbLinetypeTableRecord
  2
PHANTOM
 70
     0
  3
Phantom ______  __  __  ______  __  __  ______
 72
    65
 73
     6
 40
0.5
 49
0.25
 74
     0
 49
-0.05
 74
     0
 49
0.05
 74
     0
 49
-0.05
 74
     0
 49
0.05
 74
     0
 49
-0.05
 74
     0
  0
LTYPE
  5
41
330
5
100
AcDbSymbolTableRecord
100
AcDbLinetypeTableRecord
  2
CENTER
 70
     0
  3
Center ____ _ ____ _ ____ _ ____ _ ____ _ ____
 72
    65
 73
     4
 40
0.4
 49
0.25
 74
     0
 49
-0.05
 74
     0
 49
0.05
 74
     0
 49
-0.05
 74
     0
  0
LTYPE
  5
42
330
5
100
AcDbSymbolTableRecord
100
AcDbLinetypeTableRecord
  2
CENTERX2
 70
     0
  3
Center (2x) ________  __  ________  __  _____
 72
    65
 73
     4
 40
0.8
 49
0.5
 74
     0
 49
-0.1
 74
     0
 49
0.1
 74
     0
 49
-0.1
 74
     0
  0
LTYPE
  5
43
330
5
100
AcDbSymbolTableRecord
100
AcDbLinetypeTableRecord
  2
DOT2
 70
     0
  3
Dot (.5x) ........................................
 72
    65
 73
     2
 40
0.025
 49
0.0
 74
     0
 49
-0.025
 74
     0
  0
ENDTAB
  0
TABLE
  2
LAYER
  5
2
330
0
100
AcDbSymbolTable
 70
     2
  0
LAYER
  5
10
330
2
100
AcDbSymbolTableRecord
100
AcDbLayerTableRecord
  2
0
 70
     0
 62
     7
  6
Continuous
370
    -3
390
F
  0
LAYER
  5
44
330
2
100
AcDbSymbolTableRecord
100
AcDbLayerTableRecord
  2
FORMAT
 70
     0
 62
     7
  6
Continuous
370
    -3
390
F
  0
ENDTAB
  0
TABLE
  2
STYLE
  5
3
330
0
100
AcDbSymbolTable
 70
     5
  0
STYLE
  5
11
330
3
100
AcDbSymbolTableRecord
100
AcDbTextStyleTableRecord
  2
Standard
 70
     0
 40
0.0
 41
1.0
 50
0.0
 71
     0
 42
0.2
  3
txt
  4

  0
STYLE
  5
9D
330
3
100
AcDbSymbolTableRecord
100
AcDbTextStyleTableRecord
  2
SLDTEXTSTYLE0
 70
     0
 40
0.0
 41
0.75
 50
0.0
 71
     0
 42
0.2
  3
TXT
  4

  0
STYLE
  5
C5
330
3
100
AcDbSymbolTableRecord
100
AcDbTextStyleTableRecord
  2
SLDTEXTSTYLE1
 70
     0
 40
0.0
 41
0.6916666667
 50
0.0
 71
     0
 42
0.2
  3
TXT
  4

  0
STYLE
  5
10D
330
3
100
AcDbSymbolTableRecord
100
AcDbTextStyleTableRecord
  2
SLDTEXTSTYLE2
 70
     0
 40
0.0
 41
0.6944444444
 50
0.0
 71
     0
 42
0.2
  3
TXT
  4

  0
STYLE
  5
114
330
3
100
AcDbSymbolTableRecord
100
AcDbTextStyleTableRecord
  2
SLDTEXTSTYLE3
 70
     0
 40
0.0
 41
0.6875
 50
0.0
 71
     0
 42
0.2
  3
TXT
  4

  0
ENDTAB
  0
TABLE
  2
VIEW
  5
6
330
0
100
AcDbSymbolTable
 70
     0
  0
ENDTAB
  0
TABLE
  2
UCS
  5
7
330
0
100
AcDbSymbolTable
 70
     0
  0
ENDTAB
  0
TABLE
  2
APPID
  5
9
330
0
100
AcDbSymbolTable
 70
     1
  0
APPID
  5
12
330
9
100
AcDbSymbolTableRecord
100
AcDbRegAppTableRecord
  2
ACAD
 70
     0
  0
ENDTAB
  0
TABLE
  2
DIMSTYLE
  5
A
330
0
100
AcDbSymbolTable
 70
     9
100
AcDbDimStyleTable
  0
DIMSTYLE
105
27
330
A
100
AcDbSymbolTableRecord
100
AcDbDimStyleTableRecord
  2
Standard
 70
     0
340
11
  0
DIMSTYLE
105
138
102
{ACAD_REACTORS
330
137
330
179
330
2EC
330
319
330
3B5
330
3EA
102
}
330
A
100
AcDbSymbolTableRecord
100
AcDbDimStyleTableRecord
  2
SLDDIMSTYLE0
 70
     0
 41
0.0106837607
 44
0.0
 45
0.000000001
 78
    12
140
0.2916666667
147
0.0729166667
173
     1
271
     0
272
     0
276
     2
277
     5
284
    12
340
9D
341
139
343
139
344
139
  0
DIMSTYLE
105
145
102
{ACAD_REACTORS
330
144
330
156
330
15E
330
166
330
180
330
18A
330
192
330
19A
330
1A2
330
1AA
330
1B2
330
1BA
330
1C4
330
2F5
330
2FF
330
307
330
311
330
322
330
354
330
35C
330
3BE
330
3C8
330
3D0
330
3D8
330
3E2
330
3F3
330
3FD
330
405
330
40F
102
}
330
A
100
AcDbSymbolTableRecord
100
AcDbDimStyleTableRecord
  2
SLDDIMSTYLE1
 70
     0
 41
0.1041666667
 44
0.0
 45
0.000000001
 78
    12
140
0.2916666667
147
0.0729166667
173
     1
271
     3
272
     3
276
     2
277
     5
284
    12
340
9D
341
146
343
146
344
146
  0
DIMSTYLE
105
171
102
{ACAD_REACTORS
330
170
330
32C
330
336
330
340
330
34A
102
}
330
A
100
AcDbSymbolTableRecord
100
AcDbDimStyleTableRecord
  2
SLDDIMSTYLE2
 70
     0
 41
0.1041666667
 44
0.0
 45
0.000000001
 78
     4
140
0.2916666667
147
0.0729166667
173
     1
271
     3
272
     3
276
     2
277
     5
284
    12
340
9D
341
146
343
146
344
146
  0
DIMSTYLE
105
1CD
102
{ACAD_REACTORS
330
1CC
330
364
330
417
330
4D7
102
}
330
A
100
AcDbSymbolTableRecord
100
AcDbDimStyleTableRecord
  2
SLDDIMSTYLE3
 70
     0
 41
0.1041666667
 44
0.0
 45
0.000000001
 78
     4
140
0.2916666667
141
0.0
147
0.0729166667
172
     1
173
     1
271
     3
272
     3
276
     2
277
     5
284
    12
340
9D
341
1CE
343
1CE
344
146
  0
DIMSTYLE
105
2CA
102
{ACAD_REACTORS
330
2C9
330
397
330
4A1
330
56C
102
}
330
A
100
AcDbSymbolTableRecord
100
AcDbDimStyleTableRecord
  2
SLDDIMSTYLE4
 70
     0
 41
0.1041666667
 44
0.0
 45
0.000000001
 78
     4
140
0.2916666667
147
0.0729166667
173
     1
271
     3
272
     3
276
     2
277
     5
284
    12
340
9D
341
146
343
146
344
146
  0
DIMSTYLE
105
36F
102
{ACAD_REACTORS
330
36E
102
}
330
A
100
AcDbSymbolTableRecord
100
AcDbDimStyleTableRecord
  2
SLDDIMSTYLE5
 70
     0
 41
0.1041666667
 44
0.0
 78
    12
140
0.2916666667
147
0.0729166667
173
     1
179
     2
272
     2
276
     2
277
     5
284
    12
340
9D
341
146
343
146
344
146
  0
DIMSTYLE
105
381
330
A
100
AcDbSymbolTableRecord
100
AcDbDimStyleTableRecord
  2
SLDDIMSTYLE6
 70
     0
 41
0.1041666667
 44
0.0
 45
0.000000001
140
0.0
146
0.1041666667
147
0.0
173
     1
271
     0
272
     0
276
     2
340
11
  0
DIMSTYLE
105
4C2
102
{ACAD_REACTORS
330
4C1
330
4CD
102
}
330
A
100
AcDbSymbolTableRecord
100
AcDbDimStyleTableRecord
  2
SLDDIMSTYLE7
 70
     0
 41
0.1041666667
 44
0.0
 45
0.000000001
 78
    12
140
0.2916666667
147
0.0729166667
173
     1
271
     3
272
     3
276
     2
277
     5
284
    12
340
9D
341
146
343
146
344
146
  0
ENDTAB
  0
TABLE
  2
BLOCK_RECORD
  5
1
330
0
100
AcDbSymbolTable
 70
   100
  0
BLOCK_RECORD
  5
1F
330
1
100
AcDbSymbolTableRecord
100
AcDbBlockTableRecord
  2
*Model_Space
340
22
  0
BLOCK_RECORD
  5
1B
330
1
100
AcDbSymbolTableRecord
100
AcDbBlockTableRecord
  2
*Paper_Space
340
1E
  0
BLOCK_RECORD
  5
23
330
1
100
AcDbSymbolTableRecord
100
AcDbBlockTableRecord
  2
*Paper_Space0
340
26
  0
BLOCK_RECORD
  5
9A
330
1
100
AcDbSymbolTableRecord
100
AcDbBlockTableRecord
  2
SW_NOTE_0
340
0
102
{BLKREFS
331
C7
102
}
  0
BLOCK_RECORD
  5
E8
330
1
100
AcDbSymbolTableRecord
100
AcDbBlockTableRecord
  2
SW_NOTE_1
340
0
102
{BLKREFS
331
ED
102
}
  0
BLOCK_RECORD
  5
EE
330
1
100
AcDbSymbolTableRecord
100
AcDbBlockTableRecord
  2
SW_NOTE_2
340
0
102
{BLKREFS
331
F4
102
}
  0
BLOCK_RECORD
  5
F6
330
1
100
AcDbSymbolTableRecord
100
AcDbBlockTableRecord
  2
SW_NOTE_3
340
0
102
{BLKREFS
331
105
102
}
  0
BLOCK_RECORD
  5
139
330
1
100
AcDbSymbolTableRecord
100
AcDbBlockTableRecord
  2
_ORIGIN
340
0
102
{BLKREFS
331
141
331
17D
331
2F0
331
31D
331
3B9
331
3EE
102
}
  0
BLOCK_RECORD
  5
13E
330
1
100
AcDbSymbolTableRecord
100
AcDbBlockTableRecord
  2
*D6
340
0
  0
BLOCK_RECORD
  5
146
330
1
100
AcDbSymbolTableRecord
100
AcDbBlockTableRecord
  2
_CLOSED
340
0
102
{BLKREFS
331
150
331
15A
331
162
331
16A
331
175
331
184
331
18E
331
196
331
19E
331
1A6
331
1AE
331
1B6
331
1BE
331
1C8
331
1D4
331
2CE
331
2CF
331
2F9
331
303
331
30B
331
315
331
326
331
330
331
33A
331
344
331
34E
331
358
331
360
331
368
331
375
331
376
331
39B
331
39C
331
3C2
331
3CC
331
3D4
331
3DC
331
3E6
331
3F7
331
401
331
409
331
413
331
41B
331
4A5
331
4A6
331
4C6
331
4C7
331
4D1
331
4D2
331
4DB
331
570
331
571
102
}
  0
BLOCK_RECORD
  5
14D
330
1
100
AcDbSymbolTableRecord
100
AcDbBlockTableRecord
  2
*D8
340
0
  0
BLOCK_RECORD
  5
157
330
1
100
AcDbSymbolTableRecord
100
AcDbBlockTableRecord
  2
*D9
340
0
  0
BLOCK_RECORD
  5
15F
330
1
100
AcDbSymbolTableRecord
100
AcDbBlockTableRecord
  2
*D10
340
0
  0
BLOCK_RECORD
  5
167
330
1
100
AcDbSymbolTableRecord
100
AcDbBlockTableRecord
  2
*D11
340
0
  0
BLOCK_RECORD
  5
172
330
1
100
AcDbSymbolTableRecord
100
AcDbBlockTableRecord
  2
*D12
340
0
  0
BLOCK_RECORD
  5
17A
330
1
100
AcDbSymbolTableRecord
100
AcDbBlockTableRecord
  2
*D13
340
0
  0
BLOCK_RECORD
  5
181
330
1
100
AcDbSymbolTableRecord
100
AcDbBlockTableRecord
  2
*D14
340
0
  0
BLOCK_RECORD
  5
18B
330
1
100
AcDbSymbolTableRecord
100
AcDbBlockTableRecord
  2
*D15
340
0
  0
BLOCK_RECORD
  5
193
330
1
100
AcDbSymbolTableRecord
100
AcDbBlockTableRecord
  2
*D16
340
0
  0
BLOCK_RECORD
  5
19B
330
1
100
AcDbSymbolTableRecord
100
AcDbBlockTableRecord
  2
*D17
340
0
  0
BLOCK_RECORD
  5
1A3
330
1
100
AcDbSymbolTableRecord
100
AcDbBlockTableRecord
  2
*D18
340
0
  0
BLOCK_RECORD
  5
1AB
330
1
100
AcDbSymbolTableRecord
100
AcDbBlockTableRecord
  2
*D19
340
0
  0
BLOCK_RECORD
  5
1B3
330
1
100
AcDbSymbolTableRecord
100
AcDbBlockTableRecord
  2
*D20
340
0
  0
BLOCK_RECORD
  5
1BB
330
1
100
AcDbSymbolTableRecord
100
AcDbBlockTableRecord
  2
*D21
340
0
  0
BLOCK_RECORD
  5
1C5
330
1
100
AcDbSymbolTableRecord
100
AcDbBlockTableRecord
  2
*D22
340
0
  0
BLOCK_RECORD
  5
1CE
330
1
100
AcDbSymbolTableRecord
100
AcDbBlockTableRecord
  2
_NONE
340
0
  0
BLOCK_RECORD
  5
1D1
330
1
100
AcDbSymbolTableRecord
100
AcDbBlockTableRecord
  2
*D24
340
0
  0
BLOCK_RECORD
  5
1DB
330
1
100
AcDbSymbolTableRecord
100
AcDbBlockTableRecord
  2
SW_CENTERMARKSYMBOL_0
340
0
102
{BLKREFS
331
1E6
102
}
  0
BLOCK_RECORD
  5
1E7
330
1
100
AcDbSymbolTableRecord
100
AcDbBlockTableRecord
  2
SW_CENTERMARKSYMBOL_1
340
0
102
{BLKREFS
331
1F2
102
}
  0
BLOCK_RECORD
  5
1F3
330
1
100
AcDbSymbolTableRecord
100
AcDbBlockTableRecord
  2
SW_CENTERMARKSYMBOL_2
340
0
102
{BLKREFS
331
1FE
102
}
  0
BLOCK_RECORD
  5
1FF
330
1
100
AcDbSymbolTableRecord
100
AcDbBlockTableRecord
  2
SW_CENTERMARKSYMBOL_3
340
0
102
{BLKREFS
331
20A
102
}
  0
BLOCK_RECORD
  5
20B
330
1
100
AcDbSymbolTableRecord
100
AcDbBlockTableRecord
  2
SW_CENTERMARKSYMBOL_4
340
0
102
{BLKREFS
331
216
102
}
  0
BLOCK_RECORD
  5
217
330
1
100
AcDbSymbolTableRecord
100
AcDbBlockTableRecord
  2
SW_CENTERMARKSYMBOL_5
340
0
102
{BLKREFS
331
222
102
}
  0
BLOCK_RECORD
  5
223
330
1
100
AcDbSymbolTableRecord
100
AcDbBlockTableRecord
  2
SW_CENTERMARKSYMBOL_6
340
0
102
{BLKREFS
331
22E
102
}
  0
BLOCK_RECORD
  5
22F
330
1
100
AcDbSymbolTableRecord
100
AcDbBlockTableRecord
  2
SW_CENTERMARKSYMBOL_7
340
0
102
{BLKREFS
331
23A
102
}
  0
BLOCK_RECORD
  5
23B
330
1
100
AcDbSymbolTableRecord
100
AcDbBlockTableRecord
  2
SW_CENTERMARKSYMBOL_8
340
0
102
{BLKREFS
331
246
102
}
  0
BLOCK_RECORD
  5
247
330
1
100
AcDbSymbolTableRecord
100
AcDbBlockTableRecord
  2
SW_CENTERMARKSYMBOL_9
340
0
102
{BLKREFS
331
252
102
}
  0
BLOCK_RECORD
  5
253
330
1
100
AcDbSymbolTableRecord
100
AcDbBlockTableRecord
  2
SW_CENTERMARKSYMBOL_10
340
0
102
{BLKREFS
331
25E
102
}
  0
BLOCK_RECORD
  5
25F
330
1
100
AcDbSymbolTableRecord
100
AcDbBlockTableRecord
  2
SW_CENTERMARKSYMBOL_11
340
0
102
{BLKREFS
331
26A
102
}
  0
BLOCK_RECORD
  5
26B
330
1
100
AcDbSymbolTableRecord
100
AcDbBlockTableRecord
  2
SW_CENTERMARKSYMBOL_12
340
0
102
{BLKREFS
331
276
102
}
  0
BLOCK_RECORD
  5
277
330
1
100
AcDbSymbolTableRecord
100
AcDbBlockTableRecord
  2
SW_CENTERMARKSYMBOL_13
340
0
102
{BLKREFS
331
282
102
}
  0
BLOCK_RECORD
  5
283
330
1
100
AcDbSymbolTableRecord
100
AcDbBlockTableRecord
  2
SW_CENTERMARKSYMBOL_14
340
0
102
{BLKREFS
331
28E
102
}
  0
BLOCK_RECORD
  5
28F
330
1
100
AcDbSymbolTableRecord
100
AcDbBlockTableRecord
  2
SW_CENTERMARKSYMBOL_15
340
0
102
{BLKREFS
331
29A
102
}
  0
BLOCK_RECORD
  5
29B
330
1
100
AcDbSymbolTableRecord
100
AcDbBlockTableRecord
  2
SW_CENTERMARKSYMBOL_16
340
0
102
{BLKREFS
331
2A6
102
}
  0
BLOCK_RECORD
  5
2A7
330
1
100
AcDbSymbolTableRecord
100
AcDbBlockTableRecord
  2
SW_CENTERMARKSYMBOL_17
340
0
102
{BLKREFS
331
2B2
102
}
  0
BLOCK_RECORD
  5
2B3
330
1
100
AcDbSymbolTableRecord
100
AcDbBlockTableRecord
  2
SW_CENTERMARKSYMBOL_18
340
0
102
{BLKREFS
331
2BE
102
}
  0
BLOCK_RECORD
  5
2CB
330
1
100
AcDbSymbolTableRecord
100
AcDbBlockTableRecord
  2
*D44
340
0
  0
BLOCK_RECORD
  5
2ED
330
1
100
AcDbSymbolTableRecord
100
AcDbBlockTableRecord
  2
*D45
340
0
  0
BLOCK_RECORD
  5
2F6
330
1
100
AcDbSymbolTableRecord
100
AcDbBlockTableRecord
  2
*D46
340
0
  0
BLOCK_RECORD
  5
300
330
1
100
AcDbSymbolTableRecord
100
AcDbBlockTableRecord
  2
*D47
340
0
  0
BLOCK_RECORD
  5
308
330
1
100
AcDbSymbolTableRecord
100
AcDbBlockTableRecord
  2
*D48
340
0
  0
BLOCK_RECORD
  5
312
330
1
100
AcDbSymbolTableRecord
100
AcDbBlockTableRecord
  2
*D49
340
0
  0
BLOCK_RECORD
  5
31A
330
1
100
AcDbSymbolTableRecord
100
AcDbBlockTableRecord
  2
*D50
340
0
  0
BLOCK_RECORD
  5
323
330
1
100
AcDbSymbolTableRecord
100
AcDbBlockTableRecord
  2
*D51
340
0
  0
BLOCK_RECORD
  5
32D
330
1
100
AcDbSymbolTableRecord
100
AcDbBlockTableRecord
  2
*D52
340
0
  0
BLOCK_RECORD
  5
337
330
1
100
AcDbSymbolTableRecord
100
AcDbBlockTableRecord
  2
*D53
340
0
  0
BLOCK_RECORD
  5
341
330
1
100
AcDbSymbolTableRecord
100
AcDbBlockTableRecord
  2
*D54
340
0
  0
BLOCK_RECORD
  5
34B
330
1
100
AcDbSymbolTableRecord
100
AcDbBlockTableRecord
  2
*D55
340
0
  0
BLOCK_RECORD
  5
355
330
1
100
AcDbSymbolTableRecord
100
AcDbBlockTableRecord
  2
*D56
340
0
  0
BLOCK_RECORD
  5
35D
330
1
100
AcDbSymbolTableRecord
100
AcDbBlockTableRecord
  2
*D57
340
0
  0
BLOCK_RECORD
  5
365
330
1
100
AcDbSymbolTableRecord
100
AcDbBlockTableRecord
  2
*D58
340
0
  0
BLOCK_RECORD
  5
370
330
1
100
AcDbSymbolTableRecord
100
AcDbBlockTableRecord
  2
*D59
340
0
  0
BLOCK_RECORD
  5
379
330
1
100
AcDbSymbolTableRecord
100
AcDbBlockTableRecord
  2
SW_NOTE_4
340
0
102
{BLKREFS
331
380
102
}
  0
BLOCK_RECORD
  5
398
330
1
100
AcDbSymbolTableRecord
100
AcDbBlockTableRecord
  2
*D61
340
0
  0
BLOCK_RECORD
  5
3B6
330
1
100
AcDbSymbolTableRecord
100
AcDbBlockTableRecord
  2
*D62
340
0
  0
BLOCK_RECORD
  5
3BF
330
1
100
AcDbSymbolTableRecord
100
AcDbBlockTableRecord
  2
*D63
340
0
  0
BLOCK_RECORD
  5
3C9
330
1
100
AcDbSymbolTableRecord
100
AcDbBlockTableRecord
  2
*D64
340
0
  0
BLOCK_RECORD
  5
3D1
330
1
100
AcDbSymbolTableRecord
100
AcDbBlockTableRecord
  2
*D65
340
0
  0
BLOCK_RECORD
  5
3D9
330
1
100
AcDbSymbolTableRecord
100
AcDbBlockTableRecord
  2
*D66
340
0
  0
BLOCK_RECORD
  5
3E3
330
1
100
AcDbSymbolTableRecord
100
AcDbBlockTableRecord
  2
*D67
340
0
  0
BLOCK_RECORD
  5
3EB
330
1
100
AcDbSymbolTableRecord
100
AcDbBlockTableRecord
  2
*D68
340
0
  0
BLOCK_RECORD
  5
3F4
330
1
100
AcDbSymbolTableRecord
100
AcDbBlockTableRecord
  2
*D69
340
0
  0
BLOCK_RECORD
  5
3FE
330
1
100
AcDbSymbolTableRecord
100
AcDbBlockTableRecord
  2
*D70
340
0
  0
BLOCK_RECORD
  5
406
330
1
100
AcDbSymbolTableRecord
100
AcDbBlockTableRecord
  2
*D71
340
0
  0
BLOCK_RECORD
  5
410
330
1
100
AcDbSymbolTableRecord
100
AcDbBlockTableRecord
  2
*D72
340
0
  0
BLOCK_RECORD
  5
418
330
1
100
AcDbSymbolTableRecord
100
AcDbBlockTableRecord
  2
*D73
340
0
  0
BLOCK_RECORD
  5
422
330
1
100
AcDbSymbolTableRecord
100
AcDbBlockTableRecord
  2
SW_NOTE_5
340
0
102
{BLKREFS
331
429
102
}
  0
BLOCK_RECORD
  5
42B
330
1
100
AcDbSymbolTableRecord
100
AcDbBlockTableRecord
  2
SW_CENTERMARKSYMBOL_19
340
0
102
{BLKREFS
331
436
102
}
  0
BLOCK_RECORD
  5
437
330
1
100
AcDbSymbolTableRecord
100
AcDbBlockTableRecord
  2
SW_CENTERMARKSYMBOL_20
340
0
102
{BLKREFS
331
442
102
}
  0
BLOCK_RECORD
  5
443
330
1
100
AcDbSymbolTableRecord
100
AcDbBlockTableRecord
  2
SW_CENTERMARKSYMBOL_21
340
0
102
{BLKREFS
331
44E
102
}
  0
BLOCK_RECORD
  5
44F
330
1
100
AcDbSymbolTableRecord
100
AcDbBlockTableRecord
  2
SW_CENTERMARKSYMBOL_22
340
0
102
{BLKREFS
331
45A
102
}
  0
BLOCK_RECORD
  5
45B
330
1
100
AcDbSymbolTableRecord
100
AcDbBlockTableRecord
  2
SW_CENTERMARKSYMBOL_23
340
0
102
{BLKREFS
331
466
102
}
  0
BLOCK_RECORD
  5
467
330
1
100
AcDbSymbolTableRecord
100
AcDbBlockTableRecord
  2
SW_CENTERMARKSYMBOL_24
340
0
102
{BLKREFS
331
472
102
}
  0
BLOCK_RECORD
  5
473
330
1
100
AcDbSymbolTableRecord
100
AcDbBlockTableRecord
  2
SW_CENTERMARKSYMBOL_25
340
0
102
{BLKREFS
331
47E
102
}
  0
BLOCK_RECORD
  5
47F
330
1
100
AcDbSymbolTableRecord
100
AcDbBlockTableRecord
  2
SW_CENTERMARKSYMBOL_26
340
0
102
{BLKREFS
331
48A
102
}
  0
BLOCK_RECORD
  5
48B
330
1
100
AcDbSymbolTableRecord
100
AcDbBlockTableRecord
  2
SW_CENTERMARKSYMBOL_27
340
0
102
{BLKREFS
331
496
102
}
  0
BLOCK_RECORD
  5
4A2
330
1
100
AcDbSymbolTableRecord
100
AcDbBlockTableRecord
  2
*D84
340
0
  0
BLOCK_RECORD
  5
4C3
330
1
100
AcDbSymbolTableRecord
100
AcDbBlockTableRecord
  2
*D85
340
0
  0
BLOCK_RECORD
  5
4CE
330
1
100
AcDbSymbolTableRecord
100
AcDbBlockTableRecord
  2
*D86
340
0
  0
BLOCK_RECORD
  5
4D8
330
1
100
AcDbSymbolTableRecord
100
AcDbBlockTableRecord
  2
*D87
340
0
  0
BLOCK_RECORD
  5
4E1
330
1
100
AcDbSymbolTableRecord
100
AcDbBlockTableRecord
  2
SW_NOTE_6
340
0
102
{BLKREFS
331
4E6
102
}
  0
BLOCK_RECORD
  5
4E7
330
1
100
AcDbSymbolTableRecord
100
AcDbBlockTableRecord
  2
SW_CENTERMARKSYMBOL_28
340
0
102
{BLKREFS
331
4F2
102
}
  0
BLOCK_RECORD
  5
4F3
330
1
100
AcDbSymbolTableRecord
100
AcDbBlockTableRecord
  2
SW_CENTERMARKSYMBOL_29
340
0
102
{BLKREFS
331
4FE
102
}
  0
BLOCK_RECORD
  5
4FF
330
1
100
AcDbSymbolTableRecord
100
AcDbBlockTableRecord
  2
SW_CENTERMARKSYMBOL_30
340
0
102
{BLKREFS
331
50A
102
}
  0
BLOCK_RECORD
  5
50B
330
1
100
AcDbSymbolTableRecord
100
AcDbBlockTableRecord
  2
SW_CENTERMARKSYMBOL_31
340
0
102
{BLKREFS
331
516
102
}
  0
BLOCK_RECORD
  5
517
330
1
100
AcDbSymbolTableRecord
100
AcDbBlockTableRecord
  2
SW_CENTERMARKSYMBOL_32
340
0
102
{BLKREFS
331
522
102
}
  0
BLOCK_RECORD
  5
523
330
1
100
AcDbSymbolTableRecord
100
AcDbBlockTableRecord
  2
SW_CENTERMARKSYMBOL_33
340
0
102
{BLKREFS
331
52E
102
}
  0
BLOCK_RECORD
  5
52F
330
1
100
AcDbSymbolTableRecord
100
AcDbBlockTableRecord
  2
SW_CENTERMARKSYMBOL_34
340
0
102
{BLKREFS
331
53A
102
}
  0
BLOCK_RECORD
  5
53B
330
1
100
AcDbSymbolTableRecord
100
AcDbBlockTableRecord
  2
SW_CENTERMARKSYMBOL_35
340
0
102
{BLKREFS
331
546
102
}
  0
BLOCK_RECORD
  5
547
330
1
100
AcDbSymbolTableRecord
100
AcDbBlockTableRecord
  2
SW_CENTERMARKSYMBOL_36
340
0
102
{BLKREFS
331
552
102
}
  0
BLOCK_RECORD
  5
553
330
1
100
AcDbSymbolTableRecord
100
AcDbBlockTableRecord
  2
SW_CENTERMARKSYMBOL_37
340
0
102
{BLKREFS
331
55E
102
}
  0
BLOCK_RECORD
  5
56D
330
1
100
AcDbSymbolTableRecord
100
AcDbBlockTableRecord
  2
*D99
340
0
  0
ENDTAB
  0
ENDSEC
  0
SECTION
  2
BLOCKS
  0
BLOCK
  5
20
330
1F
100
AcDbEntity
  8
0
100
AcDbBlockBegin
  2
*Model_Space
 70
     0
 10
0.0
 20
0.0
 30
0.0
  3
*Model_Space
  1

  0
ENDBLK
  5
21
330
1F
100
AcDbEntity
  8
0
100
AcDbBlockEnd
  0
BLOCK
  5
1C
330
1B
100
AcDbEntity
 67
     1
  8
0
100
AcDbBlockBegin
  2
*Paper_Space
 70
     0
 10
0.0
 20
0.0
 30
0.0
  3
*Paper_Space
  1

  0
ENDBLK
  5
1D
330
1B
100
AcDbEntity
 67
     1
  8
0
100
AcDbBlockEnd
  0
BLOCK
  5
24
330
23
100
AcDbEntity
  8
0
100
AcDbBlockBegin
  2
*Paper_Space0
 70
     0
 10
0.0
 20
0.0
 30
0.0
  3
*Paper_Space0
  1

  0
ENDBLK
  5
25
330
23
100
AcDbEntity
  8
0
100
AcDbBlockEnd
  0
BLOCK
  5
9B
330
9A
100
AcDbEntity
  8
0
100
AcDbBlockBegin
  2
SW_NOTE_0
 70
     0
 10
0.0
 20
0.0
 30
0.0
  3
SW_NOTE_0
  1

  0
MTEXT
  5
C0
330
9A
100
AcDbEntity
  8
0
  6
Continuous
 62
     0
370
     0
100
AcDbMText
 10
0.0
 20
0.6445338699
 30
0.0
 40
0.5
 41
0.0
 71
     1
 72
     1
  1
SHEET1
  7
SLDTEXTSTYLE0
 73
     1
 44
1.0
  0
MTEXT
  5
C1
330
9A
100
AcDbEntity
  8
0
  6
Continuous
 62
     0
370
     0
100
AcDbMText
 10
0.0
 20
-0.0221327887
 30
0.0
 40
0.5
 41
0.0
 71
     1
 72
     1
  1
10in Dash Insert Panels - FLAT VIEWS
  7
SLDTEXTSTYLE0
 73
     1
 44
1.0
  0
MTEXT
  5
C2
330
9A
100
AcDbEntity
  8
0
  6
Continuous
 62
     0
370
     0
100
AcDbMText
 10
0.0
 20
-0.6887994473
 30
0.0
 40
0.5
 41
0.0
 71
     1
 72
     1
  1
R1, 08-09-10: reduced overalls by .010 from original on indicated parts.
  7
SLDTEXTSTYLE0
 73
     1
 44
1.0
  0
MTEXT
  5
C3
330
9A
100
AcDbEntity
  8
0
  6
Continuous
 62
     0
370
     0
100
AcDbMText
 10
0.0
 20
-1.3554661059
 30
0.0
 40
0.5
 41
0.0
 71
     1
 72
     1
  1
- Use 3D Data for fabrication. Drawing only as reference.
  7
SLDTEXTSTYLE0
 73
     1
 44
1.0
  0
MTEXT
  5
C4
330
9A
100
AcDbEntity
  8
0
  6
Continuous
 62
     0
370
     0
100
AcDbMText
 10
0.0
 20
-2.0221327646
 30
0.0
 40
0.5
 41
0.0
 71
     1
 72
     1
  1
- Material: 5052 Aluminum, .080 Thick
  7
SLDTEXTSTYLE0
 73
     1
 44
1.0
  0
MTEXT
  5
C6
330
9A
100
AcDbEntity
  8
0
  6
Continuous
 62
     0
370
     0
100
AcDbMText
 10
0.0
 20
-2.6887994232
 30
0.0
 40
0.5
 41
0.0
 71
     1
 72
     1
  1
- parts to be CNC or LASER CUT
  7
SLDTEXTSTYLE1
 73
     1
 44
1.0
  0
ENDBLK
  5
9C
330
9A
100
AcDbEntity
  8
0
100
AcDbBlockEnd
  0
BLOCK
  5
E9
330
E8
100
AcDbEntity
  8
0
100
AcDbBlockBegin
  2
SW_NOTE_1
 70
     0
 10
0.0
 20
0.0
 30
0.0
  3
SW_NOTE_1
  1

  0
MTEXT
  5
EB
330
E8
100
AcDbEntity
  8
0
  6
Continuous
 62
     0
370
     0
100
AcDbMText
 10
0.0
 20
0.1611334675
 30
0.0
 40
0.125
 41
0.0
 71
     1
 72
     1
  1
Aerosport Modeling & Design | 
  7
SLDTEXTSTYLE0
 73
     1
 44
1.0
  0
MTEXT
  5
EC
330
E8
100
AcDbEntity
  8
0
  6
Continuous
 62
     0
370
     0
100
AcDbMText
 10
2.5625001844
 20
0.1404121497
 30
0.0
 40
0.1041666667
 41
0.0
 71
     1
 72
     1
  1
614.834.5227
  7
SLDTEXTSTYLE0
 73
     1
 44
1.0
  0
ENDBLK
  5
EA
330
E8
100
AcDbEntity
  8
0
100
AcDbBlockEnd
  0
BLOCK
  5
EF
330
EE
100
AcDbEntity
  8
0
100
AcDbBlockBegin
  2
SW_NOTE_2
 70
     0
 10
0.0
 20
0.0
 30
0.0
  3
SW_NOTE_2
  1

  0
MTEXT
  5
F1
330
EE
100
AcDbEntity
  8
0
  6
Continuous
 62
     0
370
     0
100
AcDbMText
 10
0.0
 20
0.0773440644
 30
0.0
 40
0.06
 41
0.0
 71
     1
 72
     1
  1
THE INFORMATION CONTAINED IN THIS DRAWING IS THE SOLE PROPERTY OF AEROSPORT MODELING AND DESIGN 
  7
SLDTEXTSTYLE0
 73
     1
 44
1.0
  0
MTEXT
  5
F2
330
EE
100
AcDbEntity
  8
0
  6
Continuous
 62
     0
370
     0
100
AcDbMText
 10
0.0
 20
-0.0220260102
 30
0.0
 40
0.06
 41
0.0
 71
     1
 72
     1
  1
AND OUR CLIENT.  ANY REPRODUCTION IN PART OR AS A WHOLE WITHOUT THE WRITTEN PERMISSION OF AEROSPORT 
  7
SLDTEXTSTYLE0
 73
     1
 44
1.0
  0
MTEXT
  5
F3
330
EE
100
AcDbEntity
  8
0
  6
Continuous
 62
     0
370
     0
100
AcDbMText
 10
0.0
 20
-0.1213960848
 30
0.0
 40
0.06
 41
0.0
 71
     1
 72
     1
  1
OR OUR CLIENT IS PROHIBITED.
  7
SLDTEXTSTYLE0
 73
     1
 44
1.0
  0
ENDBLK
  5
F0
330
EE
100
AcDbEntity
  8
0
100
AcDbBlockEnd
  0
BLOCK
  5
F7
330
F6
100
AcDbEntity
  8
0
100
AcDbBlockBegin
  2
SW_NOTE_3
 70
     0
 10
0.0
 20
0.0
 30
0.0
  3
SW_NOTE_3
  1

  0
MTEXT
  5
F9
330
F6
100
AcDbEntity
  8
0
  6
Continuous
 62
     0
370
     0
100
AcDbMText
 10
0.0
 20
0.0837894031
 30
0.0
 40
0.065
 41
0.0
 71
     1
 72
     1
  1
DIMENSIONS ARE IN INCHES
  7
SLDTEXTSTYLE0
 73
     1
 44
1.0
  0
MTEXT
  5
FA
330
F6
100
AcDbEntity
  8
0
  6
Continuous
 62
     0
370
     0
100
AcDbMText
 10
0.0
 20
-0.0205806729
 30
0.0
 40
0.065
 41
0.0
 71
     1
 72
     1
  1
TOLERANCES:
  7
SLDTEXTSTYLE0
 73
     1
 44
1.0
  0
MTEXT
  5
FB
330
F6
100
AcDbEntity
  8
0
  6
Continuous
 62
     0
370
     0
100
AcDbMText
 10
0.0
 20
-0.1249507489
 30
0.0
 40
0.065
 41
0.0
 71
     1
 72
     1
  1
FRACTIONAL
  7
SLDTEXTSTYLE0
 73
     1
 44
1.0
  0
MTEXT
  5
FC
330
F6
100
AcDbEntity
  8
0
  6
Continuous
 62
     0
370
     0
100
AcDbMText
 10
0.5175850875
 20
-0.1249507489
 30
0.0
 40
0.065
 41
0.0
 71
     1
 72
     1
  1
%%p
  7
SLDTEXTSTYLE0
 73
     1
 44
1.0
  0
MTEXT
  5
FD
330
F6
100
AcDbEntity
  8
0
  6
Continuous
 62
     0
370
     0
100
AcDbMText
 10
0.0
 20
-0.2293208248
 30
0.0
 40
0.065
 41
0.0
 71
     1
 72
     1
  1
ANGULAR: MACH
  7
SLDTEXTSTYLE0
 73
     1
 44
1.0
  0
MTEXT
  5
FE
330
F6
100
AcDbEntity
  8
0
  6
Continuous
 62
     0
370
     0
100
AcDbMText
 10
0.7233732769
 20
-0.2293208248
 30
0.0
 40
0.065
 41
0.0
 71
     1
 72
     1
  1
%%p
  7
SLDTEXTSTYLE0
 73
     1
 44
1.0
  0
MTEXT
  5
FF
330
F6
100
AcDbEntity
  8
0
  6
Continuous
 62
     0
370
     0
100
AcDbMText
 10
0.7852857683
 20
-0.2293208248
 30
0.0
 40
0.065
 41
0.0
 71
     1
 72
     1
  1
     BEND 
  7
SLDTEXTSTYLE0
 73
     1
 44
1.0
  0
MTEXT
  5
100
330
F6
100
AcDbEntity
  8
0
  6
Continuous
 62
     0
370
     0
100
AcDbMText
 10
1.14784136
 20
-0.2293208248
 30
0.0
 40
0.065
 41
0.0
 71
     1
 72
     1
  1
%%p
  7
SLDTEXTSTYLE0
 73
     1
 44
1.0
  0
MTEXT
  5
101
330
F6
100
AcDbEntity
  8
0
  6
Continuous
 62
     0
370
     0
100
AcDbMText
 10
0.0
 20
-0.3336909008
 30
0.0
 40
0.065
 41
0.0
 71
     1
 72
     1
  1
TWO PLACE DECIMAL    
  7
SLDTEXTSTYLE0
 73
     1
 44
1.0
  0
MTEXT
  5
102
330
F6
100
AcDbEntity
  8
0
  6
Continuous
 62
     0
370
     0
100
AcDbMText
 10
0.9794349188
 20
-0.3336909008
 30
0.0
 40
0.065
 41
0.0
 71
     1
 72
     1
  1
%%p
  7
SLDTEXTSTYLE0
 73
     1
 44
1.0
  0
MTEXT
  5
103
330
F6
100
AcDbEntity
  8
0
  6
Continuous
 62
     0
370
     0
100
AcDbMText
 10
0.0
 20
-0.4380609768
 30
0.0
 40
0.065
 41
0.0
 71
     1
 72
     1
  1
THREE PLACE DECIMAL  
  7
SLDTEXTSTYLE0
 73
     1
 44
1.0
  0
MTEXT
  5
104
330
F6
100
AcDbEntity
  8
0
  6
Continuous
 62
     0
370
     0
100
AcDbMText
 10
0.9738038639
 20
-0.4380609768
 30
0.0
 40
0.065
 41
0.0
 71
     1
 72
     1
  1
%%p
  7
SLDTEXTSTYLE0
 73
     1
 44
1.0
  0
ENDBLK
  5
F8
330
F6
100
AcDbEntity
  8
0
100
AcDbBlockEnd
  0
BLOCK
  5
13A
330
139
100
AcDbEntity
  8
0
100
AcDbBlockBegin
  2
_ORIGIN
 70
     0
 10
0.0
 20
0.0
 30
0.0
  3
_ORIGIN
  1

  0
CIRCLE
  5
13C
330
139
100
AcDbEntity
  8
0
  6
ByBlock
 62
     0
370
    -2
100
AcDbCircle
 10
0.0
 20
0.0
 30
0.0
 40
0.5
  0
LINE
  5
13D
330
139
100
AcDbEntity
  8
0
  6
ByBlock
 62
     0
370
    -2
100
AcDbLine
 10
0.0
 20
0.0
 30
0.0
 11
-1.0
 21
0.0
 31
0.0
  0
ENDBLK
  5
13B
330
139
100
AcDbEntity
  8
0
100
AcDbBlockEnd
  0
BLOCK
  5
13F
330
13E
100
AcDbEntity
  8
0
100
AcDbBlockBegin
  2
*D6
 70
     1
 10
0.0
 20
0.0
 30
0.0
  3
*D6
  1

  0
INSERT
  5
141
330
13E
100
AcDbEntity
  8
0
  6
Continuous
 62
     7
370
     0
100
AcDbBlockReference
  2
_ORIGIN
 10
26.8290059276
 20
22.0105912917
 30
0.0
 41
0.0320512821
 42
0.0320512821
 50
0.0
  0
LINE
  5
142
330
13E
100
AcDbEntity
  8
0
  6
Continuous
 62
     7
370
     0
100
AcDbLine
 10
25.9246687254
 20
22.0105912917
 30
0.0
 11
26.8610572097
 21
22.0105912917
 31
0.0
  0
MTEXT
  5
143
330
13E
100
AcDbEntity
  8
0
  6
Continuous
 62
     7
370
     0
100
AcDbMText
 10
26.9235572097
 20
22.1550381731
 30
0.0
 40
0.2916666667
 41
0.0
 71
     1
 72
     1
  1
0
  7
SLDTEXTSTYLE0
 73
     1
 44
1.0
  0
ENDBLK
  5
140
330
13E
100
AcDbEntity
  8
0
100
AcDbBlockEnd
  0
BLOCK
  5
147
330
146
100
AcDbEntity
  8
0
100
AcDbBlockBegin
  2
_CLOSED
 70
     0
 10
0.0
 20
0.0
 30
0.0
  3
_CLOSED
  1

  0
LINE
  5
149
330
146
100
AcDbEntity
  8
0
  6
ByBlock
 62
     0
370
    -2
100
AcDbLine
 10
-1.0
 20
0.166667
 30
0.0
 11
0.0
 21
0.0
 31
0.0
  0
LINE
  5
14A
330
146
100
AcDbEntity
  8
0
  6
ByBlock
 62
     0
370
    -2
100
AcDbLine
 10
0.0
 20
0.0
 30
0.0
 11
-1.0
 21
-0.166667
 31
0.0
  0
LINE
  5
14B
330
146
100
AcDbEntity
  8
0
  6
ByBlock
 62
     0
370
    -2
100
AcDbLine
 10
-1.0
 20
0.166667
 30
0.0
 11
-1.0
 21
-0.166667
 31
0.0
  0
LINE
  5
14C
330
146
100
AcDbEntity
  8
0
  6
ByBlock
 62
     0
370
    -2
100
AcDbLine
 10
0.0
 20
0.0
 30
0.0
 11
-1.0
 21
0.0
 31
0.0
  0
ENDBLK
  5
148
330
146
100
AcDbEntity
  8
0
100
AcDbBlockEnd
  0
BLOCK
  5
14E
330
14D
100
AcDbEntity
  8
0
100
AcDbBlockBegin
  2
*D8
 70
     1
 10
0.0
 20
0.0
 30
0.0
  3
*D8
  1

  0
INSERT
  5
150
330
14D
100
AcDbEntity
  8
0
  6
Continuous
 62
     7
370
     0
100
AcDbBlockReference
  2
_CLOSED
 10
26.8290059276
 20
22.7727593149
 30
0.0
 41
0.1041666667
 42
0.1041666667
 50
90.0
  0
LINE
  5
151
330
14D
100
AcDbEntity
  8
0
  6
Continuous
 62
     7
370
     0
100
AcDbLine
 10
26.664206816
 20
22.7727593149
 30
0.0
 11
26.8610572097
 21
22.7727593149
 31
0.0
  0
LINE
  5
152
330
14D
100
AcDbEntity
  8
0
  6
Continuous
 62
     7
370
     0
100
AcDbLine
 10
26.8290059276
 20
22.0105912917
 30
0.0
 11
26.8290059276
 21
22.7727593149
 31
0.0
  0
LINE
  5
153
330
14D
100
AcDbEntity
  8
0
  6
Continuous
 62
     7
370
     0
100
AcDbLine
 10
26.664206816
 20
22.7727593149
 30
0.0
 11
26.4673564223
 21
22.1980912917
 31
0.0
  0
LINE
  5
154
330
14D
100
AcDbEntity
  8
0
  6
Continuous
 62
     7
370
     0
100
AcDbLine
 10
26.4673564223
 20
22.1980912917
 30
0.0
 11
26.0198170522
 21
22.1980912917
 31
0.0
  0
MTEXT
  5
155
330
14D
100
AcDbEntity
  8
0
  6
Continuous
 62
     7
370
     0
100
AcDbMText
 10
26.9235572097
 20
22.9172061962
 30
0.0
 40
0.2916666667
 41
0.0
 71
     1
 72
     1
  1
0.188
  7
SLDTEXTSTYLE0
 73
     1
 44
1.0
  0
ENDBLK
  5
14F
330
14D
100
AcDbEntity
  8
0
100
AcDbBlockEnd
  0
BLOCK
  5
158
330
157
100
AcDbEntity
  8
0
100
AcDbBlockBegin
  2
*D9
 70
     1
 10
0.0
 20
0.0
 30
0.0
  3
*D9
  1

  0
INSERT
  5
15A
330
157
100
AcDbEntity
  8
0
  6
Continuous
 62
     7
370
     0
100
AcDbBlockReference
  2
_CLOSED
 10
26.8290059276
 20
25.6157416577
 30
0.0
 41
0.1041666667
 42
0.1041666667
 50
90.0
  0
LINE
  5
15B
330
157
100
AcDbEntity
  8
0
  6
Continuous
 62
     7
370
     0
100
AcDbLine
 10
26.0198170522
 20
25.6157416577
 30
0.0
 11
26.8610572097
 21
25.6157416577
 31
0.0
  0
LINE
  5
15C
330
157
100
AcDbEntity
  8
0
  6
Continuous
 62
     7
370
     0
100
AcDbLine
 10
26.8290059276
 20
22.7727593149
 30
0.0
 11
26.8290059276
 21
25.6157416577
 31
0.0
  0
MTEXT
  5
15D
330
157
100
AcDbEntity
  8
0
  6
Continuous
 62
     7
370
     0
100
AcDbMText
 10
26.9235572097
 20
25.7601885391
 30
0.0
 40
0.2916666667
 41
0.0
 71
     1
 72
     1
  1
3.605
  7
SLDTEXTSTYLE0
 73
     1
 44
1.0
  0
ENDBLK
  5
159
330
157
100
AcDbEntity
  8
0
100
AcDbBlockEnd
  0
BLOCK
  5
160
330
15F
100
AcDbEntity
  8
0
100
AcDbBlockBegin
  2
*D10
 70
     1
 10
0.0
 20
0.0
 30
0.0
  3
*D10
  1

  0
INSERT
  5
162
330
15F
100
AcDbEntity
  8
0
  6
Continuous
 62
     7
370
     0
100
AcDbBlockReference
  2
_CLOSED
 10
26.8290059276
 20
29.1157416577
 30
0.0
 41
0.1041666667
 42
0.1041666667
 50
90.0
  0
LINE
  5
163
330
15F
100
AcDbEntity
  8
0
  6
Continuous
 62
     7
370
     0
100
AcDbLine
 10
26.0198170522
 20
29.1157416577
 30
0.0
 11
26.8610572097
 21
29.1157416577
 31
0.0
  0
LINE
  5
164
330
15F
100
AcDbEntity
  8
0
  6
Continuous
 62
     7
370
     0
100
AcDbLine
 10
26.8290059276
 20
25.6157416577
 30
0.0
 11
26.8290059276
 21
29.1157416577
 31
0.0
  0
MTEXT
  5
165
330
15F
100
AcDbEntity
  8
0
  6
Continuous
 62
     7
370
     0
100
AcDbMText
 10
26.9235572097
 20
29.2601885391
 30
0.0
 40
0.2916666667
 41
0.0
 71
     1
 72
     1
  1
7.105
  7
SLDTEXTSTYLE0
 73
     1
 44
1.0
  0
ENDBLK
  5
161
330
15F
100
AcDbEntity
  8
0
100
AcDbBlockEnd
  0
BLOCK
  5
168
330
167
100
AcDbEntity
  8
0
100
AcDbBlockBegin
  2
*D11
 70
     1
 10
0.0
 20
0.0
 30
0.0
  3
*D11
  1

  0
INSERT
  5
16A
330
167
100
AcDbEntity
  8
0
  6
Continuous
 62
     7
370
     0
100
AcDbBlockReference
  2
_CLOSED
 10
26.8290059276
 20
31.9747347593
 30
0.0
 41
0.1041666667
 42
0.1041666667
 50
90.0
  0
LINE
  5
16B
330
167
100
AcDbEntity
  8
0
  6
Continuous
 62
     7
370
     0
100
AcDbLine
 10
26.664206816
 20
31.9747347593
 30
0.0
 11
26.8610572097
 21
31.9747347593
 31
0.0
  0
LINE
  5
16C
330
167
100
AcDbEntity
  8
0
  6
Continuous
 62
     7
370
     0
100
AcDbLine
 10
26.8290059276
 20
29.1157416577
 30
0.0
 11
26.8290059276
 21
31.9747347593
 31
0.0
  0
LINE
  5
16D
330
167
100
AcDbEntity
  8
0
  6
Continuous
 62
     7
370
     0
100
AcDbLine
 10
26.664206816
 20
31.9747347593
 30
0.0
 11
26.4673564223
 21
32.5333920237
 31
0.0
  0
LINE
  5
16E
330
167
100
AcDbEntity
  8
0
  6
Continuous
 62
     7
370
     0
100
AcDbLine
 10
26.4673564223
 20
32.5333920237
 30
0.0
 11
26.0198170522
 21
32.5333920237
 31
0.0
  0
MTEXT
  5
16F
330
167
100
AcDbEntity
  8
0
  6
Continuous
 62
     7
370
     0
100
AcDbMText
 10
26.9235572097
 20
32.1191816407
 30
0.0
 40
0.2916666667
 41
0.0
 71
     1
 72
     1
  1
10.523
  7
SLDTEXTSTYLE0
 73
     1
 44
1.0
  0
ENDBLK
  5
169
330
167
100
AcDbEntity
  8
0
100
AcDbBlockEnd
  0
BLOCK
  5
173
330
172
100
AcDbEntity
  8
0
100
AcDbBlockBegin
  2
*D12
 70
     1
 10
0.0
 20
0.0
 30
0.0
  3
*D12
  1

  0
INSERT
  5
175
330
172
100
AcDbEntity
  8
0
  6
Continuous
 62
     7
370
     0
100
AcDbBlockReference
  2
_CLOSED
 10
26.8290059276
 20
32.7208920201
 30
0.0
 41
0.1041666667
 42
0.1041666667
 50
90.0
  0
LINE
  5
176
330
172
100
AcDbEntity
  8
0
  6
Continuous
 62
     7
370
     0
100
AcDbLine
 10
25.923117059
 20
32.7208920201
 30
0.0
 11
26.8610572097
 21
32.7208920201
 31
0.0
  0
LINE
  5
177
330
172
100
AcDbEntity
  8
0
  6
Continuous
 62
     7
370
     0
100
AcDbLine
 10
26.8290059276
 20
31.9747347593
 30
0.0
 11
26.8290059276
 21
32.7208920201
 31
0.0
  0
MTEXT
  5
178
330
172
100
AcDbEntity
  8
0
  6
Continuous
 62
     7
370
     0
100
AcDbMText
 10
26.9235572097
 20
32.8653389015
 30
0.0
 40
0.2916666667
 41
0.0
 71
     1
 72
     1
  1
10.710
  7
SLDTEXTSTYLE0
 73
     1
 44
1.0
  0
ENDBLK
  5
174
330
172
100
AcDbEntity
  8
0
100
AcDbBlockEnd
  0
BLOCK
  5
17B
330
17A
100
AcDbEntity
  8
0
100
AcDbBlockBegin
  2
*D13
 70
     1
 10
0.0
 20
0.0
 30
0.0
  3
*D13
  1

  0
INSERT
  5
17D
330
17A
100
AcDbEntity
  8
0
  6
Continuous
 62
     7
370
     0
100
AcDbBlockReference
  2
_ORIGIN
 10
25.9945217766
 20
20.8469658629
 30
0.0
 41
0.0320512821
 42
0.0320512821
 50
0.0
  0
LINE
  5
17E
330
17A
100
AcDbEntity
  8
0
  6
Continuous
 62
     7
370
     0
100
AcDbLine
 10
25.9945217766
 20
22.0794890908
 30
0.0
 11
25.9945217766
 21
20.8149145808
 31
0.0
  0
MTEXT
  5
17F
330
17A
100
AcDbEntity
  8
0
  6
Continuous
 62
     7
370
     0
100
AcDbMText
 10
25.8500748953
 20
20.5370136186
 30
0.0
 40
0.2916666667
 41
0.0
 71
     1
 72
     1
  1
0
  7
SLDTEXTSTYLE0
 11
6.123233995736766E-17
 21
1.0
 31
0.0
 73
     1
 44
1.0
  0
ENDBLK
  5
17C
330
17A
100
AcDbEntity
  8
0
100
AcDbBlockEnd
  0
BLOCK
  5
182
330
181
100
AcDbEntity
  8
0
100
AcDbBlockBegin
  2
*D14
 70
     1
 10
0.0
 20
0.0
 30
0.0
  3
*D14
  1

  0
INSERT
  5
184
330
181
100
AcDbEntity
  8
0
  6
Continuous
 62
     7
370
     0
100
AcDbBlockReference
  2
_CLOSED
 10
25.243591903
 20
20.8469658629
 30
0.0
 41
0.1041666667
 42
0.1041666667
 50
180.0
  0
LINE
  5
185
330
181
100
AcDbEntity
  8
0
  6
Continuous
 62
     7
370
     0
100
AcDbLine
 10
25.243591903
 20
21.0117649745
 30
0.0
 11
25.243591903
 21
20.8149145808
 31
0.0
  0
LINE
  5
186
330
181
100
AcDbEntity
  8
0
  6
Continuous
 62
     7
370
     0
100
AcDbLine
 10
25.9945217766
 20
20.8469658629
 30
0.0
 11
25.243591903
 21
20.8469658629
 31
0.0
  0
LINE
  5
187
330
181
100
AcDbEntity
  8
0
  6
Continuous
 62
     7
370
     0
100
AcDbLine
 10
25.243591903
 20
21.0117649745
 30
0.0
 11
25.8070217766
 21
21.2086153682
 31
0.0
  0
LINE
  5
188
330
181
100
AcDbEntity
  8
0
  6
Continuous
 62
     7
370
     0
100
AcDbLine
 10
25.8070217766
 20
21.2086153682
 30
0.0
 11
25.8070217766
 21
21.9852960161
 31
0.0
  0
MTEXT
  5
189
330
181
100
AcDbEntity
  8
0
  6
Continuous
 62
     7
370
     0
100
AcDbMText
 10
25.0991450217
 20
19.783110251
 30
0.0
 40
0.2916666667
 41
0.0
 71
     1
 72
     1
  1
0.188
  7
SLDTEXTSTYLE0
 11
6.123233995736766E-17
 21
1.0
 31
0.0
 73
     1
 44
1.0
  0
ENDBLK
  5
183
330
181
100
AcDbEntity
  8
0
100
AcDbBlockEnd
  0
BLOCK
  5
18C
330
18B
100
AcDbEntity
  8
0
100
AcDbBlockBegin
  2
*D15
 70
     1
 10
0.0
 20
0.0
 30
0.0
  3
*D15
  1

  0
INSERT
  5
18E
330
18B
100
AcDbEntity
  8
0
  6
Continuous
 62
     7
370
     0
100
AcDbBlockReference
  2
_CLOSED
 10
22.387086741
 20
20.8469658629
 30
0.0
 41
0.1041666667
 42
0.1041666667
 50
180.0
  0
LINE
  5
18F
330
18B
100
AcDbEntity
  8
0
  6
Continuous
 62
     7
370
     0
100
AcDbLine
 10
22.387086741
 20
21.9852960161
 30
0.0
 11
22.387086741
 21
20.8149145808
 31
0.0
  0
LINE
  5
190
330
18B
100
AcDbEntity
  8
0
  6
Continuous
 62
     7
370
     0
100
AcDbLine
 10
25.243591903
 20
20.8469658629
 30
0.0
 11
22.387086741
 21
20.8469658629
 31
0.0
  0
MTEXT
  5
191
330
18B
100
AcDbEntity
  8
0
  6
Continuous
 62
     7
370
     0
100
AcDbMText
 10
22.2426398596
 20
19.783110251
 30
0.0
 40
0.2916666667
 41
0.0
 71
     1
 72
     1
  1
3.607
  7
SLDTEXTSTYLE0
 11
6.123233995736766E-17
 21
1.0
 31
0.0
 73
     1
 44
1.0
  0
ENDBLK
  5
18D
330
18B
100
AcDbEntity
  8
0
100
AcDbBlockEnd
  0
BLOCK
  5
194
330
193
100
AcDbEntity
  8
0
100
AcDbBlockBegin
  2
*D16
 70
     1
 10
0.0
 20
0.0
 30
0.0
  3
*D16
  1

  0
INSERT
  5
196
330
193
100
AcDbEntity
  8
0
  6
Continuous
 62
     7
370
     0
100
AcDbBlockReference
  2
_CLOSED
 10
18.887086741
 20
20.8469658629
 30
0.0
 41
0.1041666667
 42
0.1041666667
 50
180.0
  0
LINE
  5
197
330
193
100
AcDbEntity
  8
0
  6
Continuous
 62
     7
370
     0
100
AcDbLine
 10
18.887086741
 20
21.9852960161
 30
0.0
 11
18.887086741
 21
20.8149145808
 31
0.0
  0
LINE
  5
198
330
193
100
AcDbEntity
  8
0
  6
Continuous
 62
     7
370
     0
100
AcDbLine
 10
22.387086741
 20
20.8469658629
 30
0.0
 11
18.887086741
 21
20.8469658629
 31
0.0
  0
MTEXT
  5
199
330
193
100
AcDbEntity
  8
0
  6
Continuous
 62
     7
370
     0
100
AcDbMText
 10
18.7426398596
 20
19.783110251
 30
0.0
 40
0.2916666667
 41
0.0
 71
     1
 72
     1
  1
7.107
  7
SLDTEXTSTYLE0
 11
6.123233995736766E-17
 21
1.0
 31
0.0
 73
     1
 44
1.0
  0
ENDBLK
  5
195
330
193
100
AcDbEntity
  8
0
100
AcDbBlockEnd
  0
BLOCK
  5
19C
330
19B
100
AcDbEntity
  8
0
100
AcDbBlockBegin
  2
*D17
 70
     1
 10
0.0
 20
0.0
 30
0.0
  3
*D17
  1

  0
INSERT
  5
19E
330
19B
100
AcDbEntity
  8
0
  6
Continuous
 62
     7
370
     0
100
AcDbBlockReference
  2
_CLOSED
 10
15.387086741
 20
20.8469658629
 30
0.0
 41
0.1041666667
 42
0.1041666667
 50
180.0
  0
LINE
  5
19F
330
19B
100
AcDbEntity
  8
0
  6
Continuous
 62
     7
370
     0
100
AcDbLine
 10
15.387086741
 20
21.9852960161
 30
0.0
 11
15.387086741
 21
20.8149145808
 31
0.0
  0
LINE
  5
1A0
330
19B
100
AcDbEntity
  8
0
  6
Continuous
 62
     7
370
     0
100
AcDbLine
 10
18.887086741
 20
20.8469658629
 30
0.0
 11
15.387086741
 21
20.8469658629
 31
0.0
  0
MTEXT
  5
1A1
330
19B
100
AcDbEntity
  8
0
  6
Continuous
 62
     7
370
     0
100
AcDbMText
 10
15.2426398596
 20
19.5677092888
 30
0.0
 40
0.2916666667
 41
0.0
 71
     1
 72
     1
  1
10.607
  7
SLDTEXTSTYLE0
 11
6.123233995736766E-17
 21
1.0
 31
0.0
 73
     1
 44
1.0
  0
ENDBLK
  5
19D
330
19B
100
AcDbEntity
  8
0
100
AcDbBlockEnd
  0
BLOCK
  5
1A4
330
1A3
100
AcDbEntity
  8
0
100
AcDbBlockBegin
  2
*D18
 70
     1
 10
0.0
 20
0.0
 30
0.0
  3
*D18
  1

  0
INSERT
  5
1A6
330
1A3
100
AcDbEntity
  8
0
  6
Continuous
 62
     7
370
     0
100
AcDbBlockReference
  2
_CLOSED
 10
11.887086741
 20
20.8469658629
 30
0.0
 41
0.1041666667
 42
0.1041666667
 50
180.0
  0
LINE
  5
1A7
330
1A3
100
AcDbEntity
  8
0
  6
Continuous
 62
     7
370
     0
100
AcDbLine
 10
11.887086741
 20
21.9852960161
 30
0.0
 11
11.887086741
 21
20.8149145808
 31
0.0
  0
LINE
  5
1A8
330
1A3
100
AcDbEntity
  8
0
  6
Continuous
 62
     7
370
     0
100
AcDbLine
 10
15.387086741
 20
20.8469658629
 30
0.0
 11
11.887086741
 21
20.8469658629
 31
0.0
  0
MTEXT
  5
1A9
330
1A3
100
AcDbEntity
  8
0
  6
Continuous
 62
     7
370
     0
100
AcDbMText
 10
11.7426398596
 20
19.5677092888
 30
0.0
 40
0.2916666667
 41
0.0
 71
     1
 72
     1
  1
14.107
  7
SLDTEXTSTYLE0
 11
6.123233995736766E-17
 21
1.0
 31
0.0
 73
     1
 44
1.0
  0
ENDBLK
  5
1A5
330
1A3
100
AcDbEntity
  8
0
100
AcDbBlockEnd
  0
BLOCK
  5
1AC
330
1AB
100
AcDbEntity
  8
0
100
AcDbBlockBegin
  2
*D19
 70
     1
 10
0.0
 20
0.0
 30
0.0
  3
*D19
  1

  0
INSERT
  5
1AE
330
1AB
100
AcDbEntity
  8
0
  6
Continuous
 62
     7
370
     0
100
AcDbBlockReference
  2
_CLOSED
 10
8.387086741
 20
20.8469658629
 30
0.0
 41
0.1041666667
 42
0.1041666667
 50
180.0
  0
LINE
  5
1AF
330
1AB
100
AcDbEntity
  8
0
  6
Continuous
 62
     7
370
     0
100
AcDbLine
 10
8.387086741
 20
21.9852960161
 30
0.0
 11
8.387086741
 21
20.8149145808
 31
0.0
  0
LINE
  5
1B0
330
1AB
100
AcDbEntity
  8
0
  6
Continuous
 62
     7
370
     0
100
AcDbLine
 10
11.887086741
 20
20.8469658629
 30
0.0
 11
8.387086741
 21
20.8469658629
 31
0.0
  0
MTEXT
  5
1B1
330
1AB
100
AcDbEntity
  8
0
  6
Continuous
 62
     7
370
     0
100
AcDbMText
 10
8.2426398596
 20
19.5677092888
 30
0.0
 40
0.2916666667
 41
0.0
 71
     1
 72
     1
  1
17.607
  7
SLDTEXTSTYLE0
 11
6.123233995736766E-17
 21
1.0
 31
0.0
 73
     1
 44
1.0
  0
ENDBLK
  5
1AD
330
1AB
100
AcDbEntity
  8
0
100
AcDbBlockEnd
  0
BLOCK
  5
1B4
330
1B3
100
AcDbEntity
  8
0
100
AcDbBlockBegin
  2
*D20
 70
     1
 10
0.0
 20
0.0
 30
0.0
  3
*D20
  1

  0
INSERT
  5
1B6
330
1B3
100
AcDbEntity
  8
0
  6
Continuous
 62
     7
370
     0
100
AcDbBlockReference
  2
_CLOSED
 10
4.887086741
 20
20.8469658629
 30
0.0
 41
0.1041666667
 42
0.1041666667
 50
180.0
  0
LINE
  5
1B7
330
1B3
100
AcDbEntity
  8
0
  6
Continuous
 62
     7
370
     0
100
AcDbLine
 10
4.887086741
 20
21.9852960161
 30
0.0
 11
4.887086741
 21
20.8149145808
 31
0.0
  0
LINE
  5
1B8
330
1B3
100
AcDbEntity
  8
0
  6
Continuous
 62
     7
370
     0
100
AcDbLine
 10
8.387086741
 20
20.8469658629
 30
0.0
 11
4.887086741
 21
20.8469658629
 31
0.0
  0
MTEXT
  5
1B9
330
1B3
100
AcDbEntity
  8
0
  6
Continuous
 62
     7
370
     0
100
AcDbMText
 10
4.7426398596
 20
19.5677092888
 30
0.0
 40
0.2916666667
 41
0.0
 71
     1
 72
     1
  1
21.107
  7
SLDTEXTSTYLE0
 11
6.123233995736766E-17
 21
1.0
 31
0.0
 73
     1
 44
1.0
  0
ENDBLK
  5
1B5
330
1B3
100
AcDbEntity
  8
0
100
AcDbBlockEnd
  0
BLOCK
  5
1BC
330
1BB
100
AcDbEntity
  8
0
100
AcDbBlockBegin
  2
*D21
 70
     1
 10
0.0
 20
0.0
 30
0.0
  3
*D21
  1

  0
INSERT
  5
1BE
330
1BB
100
AcDbEntity
  8
0
  6
Continuous
 62
     7
370
     0
100
AcDbBlockReference
  2
_CLOSED
 10
2.4137824104
 20
20.8469658629
 30
0.0
 41
0.1041666667
 42
0.1041666667
 50
180.0
  0
LINE
  5
1BF
330
1BB
100
AcDbEntity
  8
0
  6
Continuous
 62
     7
370
     0
100
AcDbLine
 10
2.4137824104
 20
21.0117649745
 30
0.0
 11
2.4137824104
 21
20.8149145808
 31
0.0
  0
LINE
  5
1C0
330
1BB
100
AcDbEntity
  8
0
  6
Continuous
 62
     7
370
     0
100
AcDbLine
 10
4.887086741
 20
20.8469658629
 30
0.0
 11
2.4137824104
 21
20.8469658629
 31
0.0
  0
LINE
  5
1C1
330
1BB
100
AcDbEntity
  8
0
  6
Continuous
 62
     7
370
     0
100
AcDbLine
 10
2.4137824104
 20
21.0117649745
 30
0.0
 11
1.4671517054
 21
21.2086153682
 31
0.0
  0
LINE
  5
1C2
330
1BB
100
AcDbEntity
  8
0
  6
Continuous
 62
     7
370
     0
100
AcDbLine
 10
1.4671517054
 20
21.2086153682
 30
0.0
 11
1.4671517054
 21
21.9852960161
 31
0.0
  0
MTEXT
  5
1C3
330
1BB
100
AcDbEntity
  8
0
  6
Continuous
 62
     7
370
     0
100
AcDbMText
 10
2.269335529
 20
19.5677092888
 30
0.0
 40
0.2916666667
 41
0.0
 71
     1
 72
     1
  1
24.527
  7
SLDTEXTSTYLE0
 11
6.123233995736766E-17
 21
1.0
 31
0.0
 73
     1
 44
1.0
  0
ENDBLK
  5
1BD
330
1BB
100
AcDbEntity
  8
0
100
AcDbBlockEnd
  0
BLOCK
  5
1C6
330
1C5
100
AcDbEntity
  8
0
100
AcDbBlockBegin
  2
*D22
 70
     1
 10
0.0
 20
0.0
 30
0.0
  3
*D22
  1

  0
INSERT
  5
1C8
330
1C5
100
AcDbEntity
  8
0
  6
Continuous
 62
     7
370
     0
100
AcDbBlockReference
  2
_CLOSED
 10
1.2796517054
 20
20.8469658629
 30
0.0
 41
0.1041666667
 42
0.1041666667
 50
180.0
  0
LINE
  5
1C9
330
1C5
100
AcDbEntity
  8
0
  6
Continuous
 62
     7
370
     0
100
AcDbLine
 10
1.2796517054
 20
22.0813644333
 30
0.0
 11
1.2796517054
 21
20.8149145808
 31
0.0
  0
LINE
  5
1CA
330
1C5
100
AcDbEntity
  8
0
  6
Continuous
 62
     7
370
     0
100
AcDbLine
 10
2.4137824104
 20
20.8469658629
 30
0.0
 11
1.2796517054
 21
20.8469658629
 31
0.0
  0
MTEXT
  5
1CB
330
1C5
100
AcDbEntity
  8
0
  6
Continuous
 62
     7
370
     0
100
AcDbMText
 10
1.135204824
 20
19.5677092888
 30
0.0
 40
0.2916666667
 41
0.0
 71
     1
 72
     1
  1
24.715
  7
SLDTEXTSTYLE0
 11
6.123233995736766E-17
 21
1.0
 31
0.0
 73
     1
 44
1.0
  0
ENDBLK
  5
1C7
330
1C5
100
AcDbEntity
  8
0
100
AcDbBlockEnd
  0
BLOCK
  5
1CF
330
1CE
100
AcDbEntity
  8
0
100
AcDbBlockBegin
  2
_NONE
 70
     0
 10
0.0
 20
0.0
 30
0.0
  3
_NONE
  1

  0
ENDBLK
  5
1D0
330
1CE
100
AcDbEntity
  8
0
100
AcDbBlockEnd
  0
BLOCK
  5
1D2
330
1D1
100
AcDbEntity
  8
0
100
AcDbBlockBegin
  2
*D24
 70
     1
 10
0.0
 20
0.0
 30
0.0
  3
*D24
  1

  0
INSERT
  5
1D4
330
1D1
100
AcDbEntity
  8
0
  6
Continuous
 62
     7
370
     0
100
AcDbBlockReference
  2
_CLOSED
 10
25.8444290482
 20
22.1330859378
 30
0.04
 41
0.1041666667
 42
0.1041666667
 50
119.9182354599
  0
LINE
  5
1D5
330
1D1
100
AcDbEntity
  8
0
  6
Continuous
 62
     7
370
     0
100
AcDbLine
 10
25.8444290482
 20
22.1330859378
 30
0.0
 11
26.3516344257
 21
21.2516780272
 31
0.0
  0
LINE
  5
1D6
330
1D1
100
AcDbEntity
  8
0
  6
Continuous
 62
     7
370
     0
100
AcDbLine
 10
25.7696145051
 20
22.2630966456
 30
0.0
 11
25.8444290482
 21
22.1330859378
 31
0.0
  0
LINE
  5
1D7
330
1D1
100
AcDbEntity
  8
0
  6
Continuous
 62
     7
370
     0
100
AcDbLine
 10
26.3516344257
 20
21.2516780272
 30
0.0
 11
27.948670676
 21
21.2516780272
 31
0.0
  0
MTEXT
  5
1D8
330
1D1
100
AcDbEntity
  8
0
  6
Continuous
 62
     7
370
     0
100
AcDbMText
 10
26.4766344257
 20
21.6276561179
 30
0.0
 40
0.2916666667
 41
0.0
 71
     1
 72
     1
  1
%%c
  7
SLDTEXTSTYLE0
 73
     1
 44
1.0
  0
MTEXT
  5
1D9
330
1D1
100
AcDbEntity
  8
0
  6
Continuous
 62
     7
370
     0
100
AcDbMText
 10
26.9168663461
 20
21.6276561271
 30
0.0
 40
0.2916666667
 41
0.0
 71
     1
 72
     1
  1
0.150
  7
SLDTEXTSTYLE0
 73
     1
 44
1.0
  0
ENDBLK
  5
1D3
330
1D1
100
AcDbEntity
  8
0
100
AcDbBlockEnd
  0
BLOCK
  5
1DC
330
1DB
100
AcDbEntity
  8
0
100
AcDbBlockBegin
  2
SW_CENTERMARKSYMBOL_0
 70
     0
 10
0.0
 20
0.0
 30
0.0
  3
SW_CENTERMARKSYMBOL_0
  1

  0
LINE
  5
1DE
330
1DB
100
AcDbEntity
  8
0
  6
Continuous
 62
     0
370
     0
100
AcDbLine
 10
0.0
 20
0.0
 30
0.0
 11
0.0
 21
0.0984251969
 31
0.0
  0
LINE
  5
1DF
330
1DB
100
AcDbEntity
  8
0
  6
Continuous
 62
     0
370
     0
100
AcDbLine
 10
0.0
 20
0.0
 30
0.0
 11
-0.0984251969
 21
0.0
 31
0.0
  0
LINE
  5
1E0
330
1DB
100
AcDbEntity
  8
0
  6
Continuous
 62
     0
370
     0
100
AcDbLine
 10
0.0
 20
0.0
 30
0.0
 11
0.0
 21
-0.0984251969
 31
0.0
  0
LINE
  5
1E1
330
1DB
100
AcDbEntity
  8
0
  6
Continuous
 62
     0
370
     0
100
AcDbLine
 10
0.0
 20
0.0
 30
0.0
 11
0.0984251969
 21
0.0
 31
0.0
  0
LINE
  5
1E2
330
1DB
100
AcDbEntity
  8
0
  6
Continuous
 62
     0
370
     0
100
AcDbLine
 10
0.0
 20
0.0984251969
 30
0.0
 11
0.0
 21
0.1734251969
 31
0.0
  0
LINE
  5
1E3
330
1DB
100
AcDbEntity
  8
0
  6
Continuous
 62
     0
370
     0
100
AcDbLine
 10
-0.0984251969
 20
0.0
 30
0.0
 11
-0.1734251969
 21
0.0
 31
0.0
  0
LINE
  5
1E4
330
1DB
100
AcDbEntity
  8
0
  6
Continuous
 62
     0
370
     0
100
AcDbLine
 10
0.0
 20
-0.0984251969
 30
0.0
 11
0.0
 21
-0.1734251969
 31
0.0
  0
LINE
  5
1E5
330
1DB
100
AcDbEntity
  8
0
  6
Continuous
 62
     0
370
     0
100
AcDbLine
 10
0.0984251969
 20
0.0
 30
0.0
 11
0.1734251969
 21
0.0
 31
0.0
  0
ENDBLK
  5
1DD
330
1DB
100
AcDbEntity
  8
0
100
AcDbBlockEnd
  0
BLOCK
  5
1E8
330
1E7
100
AcDbEntity
  8
0
100
AcDbBlockBegin
  2
SW_CENTERMARKSYMBOL_1
 70
     0
 10
0.0
 20
0.0
 30
0.0
  3
SW_CENTERMARKSYMBOL_1
  1

  0
LINE
  5
1EA
330
1E7
100
AcDbEntity
  8
0
  6
Continuous
 62
     0
370
     0
100
AcDbLine
 10
0.0
 20
0.0
 30
0.0
 11
0.0
 21
0.0984251969
 31
0.0
  0
LINE
  5
1EB
330
1E7
100
AcDbEntity
  8
0
  6
Continuous
 62
     0
370
     0
100
AcDbLine
 10
0.0
 20
0.0
 30
0.0
 11
-0.0984251969
 21
0.0
 31
0.0
  0
LINE
  5
1EC
330
1E7
100
AcDbEntity
  8
0
  6
Continuous
 62
     0
370
     0
100
AcDbLine
 10
0.0
 20
0.0
 30
0.0
 11
0.0
 21
-0.0984251969
 31
0.0
  0
LINE
  5
1ED
330
1E7
100
AcDbEntity
  8
0
  6
Continuous
 62
     0
370
     0
100
AcDbLine
 10
0.0
 20
0.0
 30
0.0
 11
0.0984251969
 21
0.0
 31
0.0
  0
LINE
  5
1EE
330
1E7
100
AcDbEntity
  8
0
  6
Continuous
 62
     0
370
     0
100
AcDbLine
 10
0.0
 20
0.0984251969
 30
0.0
 11
0.0
 21
0.1734251969
 31
0.0
  0
LINE
  5
1EF
330
1E7
100
AcDbEntity
  8
0
  6
Continuous
 62
     0
370
     0
100
AcDbLine
 10
-0.0984251969
 20
0.0
 30
0.0
 11
-0.1734251969
 21
0.0
 31
0.0
  0
LINE
  5
1F0
330
1E7
100
AcDbEntity
  8
0
  6
Continuous
 62
     0
370
     0
100
AcDbLine
 10
0.0
 20
-0.0984251969
 30
0.0
 11
0.0
 21
-0.1734251969
 31
0.0
  0
LINE
  5
1F1
330
1E7
100
AcDbEntity
  8
0
  6
Continuous
 62
     0
370
     0
100
AcDbLine
 10
0.0984251969
 20
0.0
 30
0.0
 11
0.1734251969
 21
0.0
 31
0.0
  0
ENDBLK
  5
1E9
330
1E7
100
AcDbEntity
  8
0
100
AcDbBlockEnd
  0
BLOCK
  5
1F4
330
1F3
100
AcDbEntity
  8
0
100
AcDbBlockBegin
  2
SW_CENTERMARKSYMBOL_2
 70
     0
 10
0.0
 20
0.0
 30
0.0
  3
SW_CENTERMARKSYMBOL_2
  1

  0
LINE
  5
1F6
330
1F3
100
AcDbEntity
  8
0
  6
Continuous
 62
     0
370
     0
100
AcDbLine
 10
0.0
 20
0.0
 30
0.0
 11
0.0
 21
0.0984251969
 31
0.0
  0
LINE
  5
1F7
330
1F3
100
AcDbEntity
  8
0
  6
Continuous
 62
     0
370
     0
100
AcDbLine
 10
0.0
 20
0.0
 30
0.0
 11
-0.0984251969
 21
0.0
 31
0.0
  0
LINE
  5
1F8
330
1F3
100
AcDbEntity
  8
0
  6
Continuous
 62
     0
370
     0
100
AcDbLine
 10
0.0
 20
0.0
 30
0.0
 11
0.0
 21
-0.0984251969
 31
0.0
  0
LINE
  5
1F9
330
1F3
100
AcDbEntity
  8
0
  6
Continuous
 62
     0
370
     0
100
AcDbLine
 10
0.0
 20
0.0
 30
0.0
 11
0.0984251969
 21
0.0
 31
0.0
  0
LINE
  5
1FA
330
1F3
100
AcDbEntity
  8
0
  6
Continuous
 62
     0
370
     0
100
AcDbLine
 10
0.0
 20
0.0984251969
 30
0.0
 11
0.0
 21
0.1734251969
 31
0.0
  0
LINE
  5
1FB
330
1F3
100
AcDbEntity
  8
0
  6
Continuous
 62
     0
370
     0
100
AcDbLine
 10
-0.0984251969
 20
0.0
 30
0.0
 11
-0.1734251969
 21
0.0
 31
0.0
  0
LINE
  5
1FC
330
1F3
100
AcDbEntity
  8
0
  6
Continuous
 62
     0
370
     0
100
AcDbLine
 10
0.0
 20
-0.0984251969
 30
0.0
 11
0.0
 21
-0.1734251969
 31
0.0
  0
LINE
  5
1FD
330
1F3
100
AcDbEntity
  8
0
  6
Continuous
 62
     0
370
     0
100
AcDbLine
 10
0.0984251969
 20
0.0
 30
0.0
 11
0.1734251969
 21
0.0
 31
0.0
  0
ENDBLK
  5
1F5
330
1F3
100
AcDbEntity
  8
0
100
AcDbBlockEnd
  0
BLOCK
  5
200
330
1FF
100
AcDbEntity
  8
0
100
AcDbBlockBegin
  2
SW_CENTERMARKSYMBOL_3
 70
     0
 10
0.0
 20
0.0
 30
0.0
  3
SW_CENTERMARKSYMBOL_3
  1

  0
LINE
  5
202
330
1FF
100
AcDbEntity
  8
0
  6
Continuous
 62
     0
370
     0
100
AcDbLine
 10
0.0
 20
0.0
 30
0.0
 11
0.0
 21
0.0984251969
 31
0.0
  0
LINE
  5
203
330
1FF
100
AcDbEntity
  8
0
  6
Continuous
 62
     0
370
     0
100
AcDbLine
 10
0.0
 20
0.0
 30
0.0
 11
-0.0984251969
 21
0.0
 31
0.0
  0
LINE
  5
204
330
1FF
100
AcDbEntity
  8
0
  6
Continuous
 62
     0
370
     0
100
AcDbLine
 10
0.0
 20
0.0
 30
0.0
 11
0.0
 21
-0.0984251969
 31
0.0
  0
LINE
  5
205
330
1FF
100
AcDbEntity
  8
0
  6
Continuous
 62
     0
370
     0
100
AcDbLine
 10
0.0
 20
0.0
 30
0.0
 11
0.0984251969
 21
0.0
 31
0.0
  0
LINE
  5
206
330
1FF
100
AcDbEntity
  8
0
  6
Continuous
 62
     0
370
     0
100
AcDbLine
 10
0.0
 20
0.0984251969
 30
0.0
 11
0.0
 21
0.1734251969
 31
0.0
  0
LINE
  5
207
330
1FF
100
AcDbEntity
  8
0
  6
Continuous
 62
     0
370
     0
100
AcDbLine
 10
-0.0984251969
 20
0.0
 30
0.0
 11
-0.1734251969
 21
0.0
 31
0.0
  0
LINE
  5
208
330
1FF
100
AcDbEntity
  8
0
  6
Continuous
 62
     0
370
     0
100
AcDbLine
 10
0.0
 20
-0.0984251969
 30
0.0
 11
0.0
 21
-0.1734251969
 31
0.0
  0
LINE
  5
209
330
1FF
100
AcDbEntity
  8
0
  6
Continuous
 62
     0
370
     0
100
AcDbLine
 10
0.0984251969
 20
0.0
 30
0.0
 11
0.1734251969
 21
0.0
 31
0.0
  0
ENDBLK
  5
201
330
1FF
100
AcDbEntity
  8
0
100
AcDbBlockEnd
  0
BLOCK
  5
20C
330
20B
100
AcDbEntity
  8
0
100
AcDbBlockBegin
  2
SW_CENTERMARKSYMBOL_4
 70
     0
 10
0.0
 20
0.0
 30
0.0
  3
SW_CENTERMARKSYMBOL_4
  1

  0
LINE
  5
20E
330
20B
100
AcDbEntity
  8
0
  6
Continuous
 62
     0
370
     0
100
AcDbLine
 10
0.0
 20
0.0
 30
0.0
 11
0.0
 21
0.0984251969
 31
0.0
  0
LINE
  5
20F
330
20B
100
AcDbEntity
  8
0
  6
Continuous
 62
     0
370
     0
100
AcDbLine
 10
0.0
 20
0.0
 30
0.0
 11
-0.0984251969
 21
0.0
 31
0.0
  0
LINE
  5
210
330
20B
100
AcDbEntity
  8
0
  6
Continuous
 62
     0
370
     0
100
AcDbLine
 10
0.0
 20
0.0
 30
0.0
 11
0.0
 21
-0.0984251969
 31
0.0
  0
LINE
  5
211
330
20B
100
AcDbEntity
  8
0
  6
Continuous
 62
     0
370
     0
100
AcDbLine
 10
0.0
 20
0.0
 30
0.0
 11
0.0984251969
 21
0.0
 31
0.0
  0
LINE
  5
212
330
20B
100
AcDbEntity
  8
0
  6
Continuous
 62
     0
370
     0
100
AcDbLine
 10
0.0
 20
0.0984251969
 30
0.0
 11
0.0
 21
0.1734251969
 31
0.0
  0
LINE
  5
213
330
20B
100
AcDbEntity
  8
0
  6
Continuous
 62
     0
370
     0
100
AcDbLine
 10
-0.0984251969
 20
0.0
 30
0.0
 11
-0.1734251969
 21
0.0
 31
0.0
  0
LINE
  5
214
330
20B
100
AcDbEntity
  8
0
  6
Continuous
 62
     0
370
     0
100
AcDbLine
 10
0.0
 20
-0.0984251969
 30
0.0
 11
0.0
 21
-0.1734251969
 31
0.0
  0
LINE
  5
215
330
20B
100
AcDbEntity
  8
0
  6
Continuous
 62
     0
370
     0
100
AcDbLine
 10
0.0984251969
 20
0.0
 30
0.0
 11
0.1734251969
 21
0.0
 31
0.0
  0
ENDBLK
  5
20D
330
20B
100
AcDbEntity
  8
0
100
AcDbBlockEnd
  0
BLOCK
  5
218
330
217
100
AcDbEntity
  8
0
100
AcDbBlockBegin
  2
SW_CENTERMARKSYMBOL_5
 70
     0
 10
0.0
 20
0.0
 30
0.0
  3
SW_CENTERMARKSYMBOL_5
  1

  0
LINE
  5
21A
330
217
100
AcDbEntity
  8
0
  6
Continuous
 62
     0
370
     0
100
AcDbLine
 10
0.0
 20
0.0
 30
0.0
 11
0.0
 21
0.0984251969
 31
0.0
  0
LINE
  5
21B
330
217
100
AcDbEntity
  8
0
  6
Continuous
 62
     0
370
     0
100
AcDbLine
 10
0.0
 20
0.0
 30
0.0
 11
-0.0984251969
 21
0.0
 31
0.0
  0
LINE
  5
21C
330
217
100
AcDbEntity
  8
0
  6
Continuous
 62
     0
370
     0
100
AcDbLine
 10
0.0
 20
0.0
 30
0.0
 11
0.0
 21
-0.0984251969
 31
0.0
  0
LINE
  5
21D
330
217
100
AcDbEntity
  8
0
  6
Continuous
 62
     0
370
     0
100
AcDbLine
 10
0.0
 20
0.0
 30
0.0
 11
0.0984251969
 21
0.0
 31
0.0
  0
LINE
  5
21E
330
217
100
AcDbEntity
  8
0
  6
Continuous
 62
     0
370
     0
100
AcDbLine
 10
0.0
 20
0.0984251969
 30
0.0
 11
0.0
 21
0.1734251969
 31
0.0
  0
LINE
  5
21F
330
217
100
AcDbEntity
  8
0
  6
Continuous
 62
     0
370
     0
100
AcDbLine
 10
-0.0984251969
 20
0.0
 30
0.0
 11
-0.1734251969
 21
0.0
 31
0.0
  0
LINE
  5
220
330
217
100
AcDbEntity
  8
0
  6
Continuous
 62
     0
370
     0
100
AcDbLine
 10
0.0
 20
-0.0984251969
 30
0.0
 11
0.0
 21
-0.1734251969
 31
0.0
  0
LINE
  5
221
330
217
100
AcDbEntity
  8
0
  6
Continuous
 62
     0
370
     0
100
AcDbLine
 10
0.0984251969
 20
0.0
 30
0.0
 11
0.1734251969
 21
0.0
 31
0.0
  0
ENDBLK
  5
219
330
217
100
AcDbEntity
  8
0
100
AcDbBlockEnd
  0
BLOCK
  5
224
330
223
100
AcDbEntity
  8
0
100
AcDbBlockBegin
  2
SW_CENTERMARKSYMBOL_6
 70
     0
 10
0.0
 20
0.0
 30
0.0
  3
SW_CENTERMARKSYMBOL_6
  1

  0
LINE
  5
226
330
223
100
AcDbEntity
  8
0
  6
Continuous
 62
     0
370
     0
100
AcDbLine
 10
0.0
 20
0.0
 30
0.0
 11
0.0
 21
0.0984251969
 31
0.0
  0
LINE
  5
227
330
223
100
AcDbEntity
  8
0
  6
Continuous
 62
     0
370
     0
100
AcDbLine
 10
0.0
 20
0.0
 30
0.0
 11
-0.0984251969
 21
0.0
 31
0.0
  0
LINE
  5
228
330
223
100
AcDbEntity
  8
0
  6
Continuous
 62
     0
370
     0
100
AcDbLine
 10
0.0
 20
0.0
 30
0.0
 11
0.0
 21
-0.0984251969
 31
0.0
  0
LINE
  5
229
330
223
100
AcDbEntity
  8
0
  6
Continuous
 62
     0
370
     0
100
AcDbLine
 10
0.0
 20
0.0
 30
0.0
 11
0.0984251969
 21
0.0
 31
0.0
  0
LINE
  5
22A
330
223
100
AcDbEntity
  8
0
  6
Continuous
 62
     0
370
     0
100
AcDbLine
 10
0.0
 20
0.0984251969
 30
0.0
 11
0.0
 21
0.1734251969
 31
0.0
  0
LINE
  5
22B
330
223
100
AcDbEntity
  8
0
  6
Continuous
 62
     0
370
     0
100
AcDbLine
 10
-0.0984251969
 20
0.0
 30
0.0
 11
-0.1734251969
 21
0.0
 31
0.0
  0
LINE
  5
22C
330
223
100
AcDbEntity
  8
0
  6
Continuous
 62
     0
370
     0
100
AcDbLine
 10
0.0
 20
-0.0984251969
 30
0.0
 11
0.0
 21
-0.1734251969
 31
0.0
  0
LINE
  5
22D
330
223
100
AcDbEntity
  8
0
  6
Continuous
 62
     0
370
     0
100
AcDbLine
 10
0.0984251969
 20
0.0
 30
0.0
 11
0.1734251969
 21
0.0
 31
0.0
  0
ENDBLK
  5
225
330
223
100
AcDbEntity
  8
0
100
AcDbBlockEnd
  0
BLOCK
  5
230
330
22F
100
AcDbEntity
  8
0
100
AcDbBlockBegin
  2
SW_CENTERMARKSYMBOL_7
 70
     0
 10
0.0
 20
0.0
 30
0.0
  3
SW_CENTERMARKSYMBOL_7
  1

  0
LINE
  5
232
330
22F
100
AcDbEntity
  8
0
  6
Continuous
 62
     0
370
     0
100
AcDbLine
 10
0.0
 20
0.0
 30
0.0
 11
0.0
 21
0.0984251969
 31
0.0
  0
LINE
  5
233
330
22F
100
AcDbEntity
  8
0
  6
Continuous
 62
     0
370
     0
100
AcDbLine
 10
0.0
 20
0.0
 30
0.0
 11
-0.0984251969
 21
0.0
 31
0.0
  0
LINE
  5
234
330
22F
100
AcDbEntity
  8
0
  6
Continuous
 62
     0
370
     0
100
AcDbLine
 10
0.0
 20
0.0
 30
0.0
 11
0.0
 21
-0.0984251969
 31
0.0
  0
LINE
  5
235
330
22F
100
AcDbEntity
  8
0
  6
Continuous
 62
     0
370
     0
100
AcDbLine
 10
0.0
 20
0.0
 30
0.0
 11
0.0984251969
 21
0.0
 31
0.0
  0
LINE
  5
236
330
22F
100
AcDbEntity
  8
0
  6
Continuous
 62
     0
370
     0
100
AcDbLine
 10
0.0
 20
0.0984251969
 30
0.0
 11
0.0
 21
0.1734251969
 31
0.0
  0
LINE
  5
237
330
22F
100
AcDbEntity
  8
0
  6
Continuous
 62
     0
370
     0
100
AcDbLine
 10
-0.0984251969
 20
0.0
 30
0.0
 11
-0.1734251969
 21
0.0
 31
0.0
  0
LINE
  5
238
330
22F
100
AcDbEntity
  8
0
  6
Continuous
 62
     0
370
     0
100
AcDbLine
 10
0.0
 20
-0.0984251969
 30
0.0
 11
0.0
 21
-0.1734251969
 31
0.0
  0
LINE
  5
239
330
22F
100
AcDbEntity
  8
0
  6
Continuous
 62
     0
370
     0
100
AcDbLine
 10
0.0984251969
 20
0.0
 30
0.0
 11
0.1734251969
 21
0.0
 31
0.0
  0
ENDBLK
  5
231
330
22F
100
AcDbEntity
  8
0
100
AcDbBlockEnd
  0
BLOCK
  5
23C
330
23B
100
AcDbEntity
  8
0
100
AcDbBlockBegin
  2
SW_CENTERMARKSYMBOL_8
 70
     0
 10
0.0
 20
0.0
 30
0.0
  3
SW_CENTERMARKSYMBOL_8
  1

  0
LINE
  5
23E
330
23B
100
AcDbEntity
  8
0
  6
Continuous
 62
     0
370
     0
100
AcDbLine
 10
0.0
 20
0.0
 30
0.0
 11
0.0
 21
0.0984251969
 31
0.0
  0
LINE
  5
23F
330
23B
100
AcDbEntity
  8
0
  6
Continuous
 62
     0
370
     0
100
AcDbLine
 10
0.0
 20
0.0
 30
0.0
 11
-0.0984251969
 21
0.0
 31
0.0
  0
LINE
  5
240
330
23B
100
AcDbEntity
  8
0
  6
Continuous
 62
     0
370
     0
100
AcDbLine
 10
0.0
 20
0.0
 30
0.0
 11
0.0
 21
-0.0984251969
 31
0.0
  0
LINE
  5
241
330
23B
100
AcDbEntity
  8
0
  6
Continuous
 62
     0
370
     0
100
AcDbLine
 10
0.0
 20
0.0
 30
0.0
 11
0.0984251969
 21
0.0
 31
0.0
  0
LINE
  5
242
330
23B
100
AcDbEntity
  8
0
  6
Continuous
 62
     0
370
     0
100
AcDbLine
 10
0.0
 20
0.0984251969
 30
0.0
 11
0.0
 21
0.1734251969
 31
0.0
  0
LINE
  5
243
330
23B
100
AcDbEntity
  8
0
  6
Continuous
 62
     0
370
     0
100
AcDbLine
 10
-0.0984251969
 20
0.0
 30
0.0
 11
-0.1734251969
 21
0.0
 31
0.0
  0
LINE
  5
244
330
23B
100
AcDbEntity
  8
0
  6
Continuous
 62
     0
370
     0
100
AcDbLine
 10
0.0
 20
-0.0984251969
 30
0.0
 11
0.0
 21
-0.1734251969
 31
0.0
  0
LINE
  5
245
330
23B
100
AcDbEntity
  8
0
  6
Continuous
 62
     0
370
     0
100
AcDbLine
 10
0.0984251969
 20
0.0
 30
0.0
 11
0.1734251969
 21
0.0
 31
0.0
  0
ENDBLK
  5
23D
330
23B
100
AcDbEntity
  8
0
100
AcDbBlockEnd
  0
BLOCK
  5
248
330
247
100
AcDbEntity
  8
0
100
AcDbBlockBegin
  2
SW_CENTERMARKSYMBOL_9
 70
     0
 10
0.0
 20
0.0
 30
0.0
  3
SW_CENTERMARKSYMBOL_9
  1

  0
LINE
  5
24A
330
247
100
AcDbEntity
  8
0
  6
Continuous
 62
     0
370
     0
100
AcDbLine
 10
0.0
 20
0.0
 30
0.0
 11
0.0
 21
0.0984251969
 31
0.0
  0
LINE
  5
24B
330
247
100
AcDbEntity
  8
0
  6
Continuous
 62
     0
370
     0
100
AcDbLine
 10
0.0
 20
0.0
 30
0.0
 11
-0.0984251969
 21
0.0
 31
0.0
  0
LINE
  5
24C
330
247
100
AcDbEntity
  8
0
  6
Continuous
 62
     0
370
     0
100
AcDbLine
 10
0.0
 20
0.0
 30
0.0
 11
0.0
 21
-0.0984251969
 31
0.0
  0
LINE
  5
24D
330
247
100
AcDbEntity
  8
0
  6
Continuous
 62
     0
370
     0
100
AcDbLine
 10
0.0
 20
0.0
 30
0.0
 11
0.0984251969
 21
0.0
 31
0.0
  0
LINE
  5
24E
330
247
100
AcDbEntity
  8
0
  6
Continuous
 62
     0
370
     0
100
AcDbLine
 10
0.0
 20
0.0984251969
 30
0.0
 11
0.0
 21
0.1734251969
 31
0.0
  0
LINE
  5
24F
330
247
100
AcDbEntity
  8
0
  6
Continuous
 62
     0
370
     0
100
AcDbLine
 10
-0.0984251969
 20
0.0
 30
0.0
 11
-0.1734251969
 21
0.0
 31
0.0
  0
LINE
  5
250
330
247
100
AcDbEntity
  8
0
  6
Continuous
 62
     0
370
     0
100
AcDbLine
 10
0.0
 20
-0.0984251969
 30
0.0
 11
0.0
 21
-0.1734251969
 31
0.0
  0
LINE
  5
251
330
247
100
AcDbEntity
  8
0
  6
Continuous
 62
     0
370
     0
100
AcDbLine
 10
0.0984251969
 20
0.0
 30
0.0
 11
0.1734251969
 21
0.0
 31
0.0
  0
ENDBLK
  5
249
330
247
100
AcDbEntity
  8
0
100
AcDbBlockEnd
  0
BLOCK
  5
254
330
253
100
AcDbEntity
  8
0
100
AcDbBlockBegin
  2
SW_CENTERMARKSYMBOL_10
 70
     0
 10
0.0
 20
0.0
 30
0.0
  3
SW_CENTERMARKSYMBOL_10
  1

  0
LINE
  5
256
330
253
100
AcDbEntity
  8
0
  6
Continuous
 62
     0
370
     0
100
AcDbLine
 10
0.0
 20
0.0
 30
0.0
 11
0.0
 21
0.0984251969
 31
0.0
  0
LINE
  5
257
330
253
100
AcDbEntity
  8
0
  6
Continuous
 62
     0
370
     0
100
AcDbLine
 10
0.0
 20
0.0
 30
0.0
 11
-0.0984251969
 21
0.0
 31
0.0
  0
LINE
  5
258
330
253
100
AcDbEntity
  8
0
  6
Continuous
 62
     0
370
     0
100
AcDbLine
 10
0.0
 20
0.0
 30
0.0
 11
0.0
 21
-0.0984251969
 31
0.0
  0
LINE
  5
259
330
253
100
AcDbEntity
  8
0
  6
Continuous
 62
     0
370
     0
100
AcDbLine
 10
0.0
 20
0.0
 30
0.0
 11
0.0984251969
 21
0.0
 31
0.0
  0
LINE
  5
25A
330
253
100
AcDbEntity
  8
0
  6
Continuous
 62
     0
370
     0
100
AcDbLine
 10
0.0
 20
0.0984251969
 30
0.0
 11
0.0
 21
0.1734251969
 31
0.0
  0
LINE
  5
25B
330
253
100
AcDbEntity
  8
0
  6
Continuous
 62
     0
370
     0
100
AcDbLine
 10
-0.0984251969
 20
0.0
 30
0.0
 11
-0.1734251969
 21
0.0
 31
0.0
  0
LINE
  5
25C
330
253
100
AcDbEntity
  8
0
  6
Continuous
 62
     0
370
     0
100
AcDbLine
 10
0.0
 20
-0.0984251969
 30
0.0
 11
0.0
 21
-0.1734251969
 31
0.0
  0
LINE
  5
25D
330
253
100
AcDbEntity
  8
0
  6
Continuous
 62
     0
370
     0
100
AcDbLine
 10
0.0984251969
 20
0.0
 30
0.0
 11
0.1734251969
 21
0.0
 31
0.0
  0
ENDBLK
  5
255
330
253
100
AcDbEntity
  8
0
100
AcDbBlockEnd
  0
BLOCK
  5
260
330
25F
100
AcDbEntity
  8
0
100
AcDbBlockBegin
  2
SW_CENTERMARKSYMBOL_11
 70
     0
 10
0.0
 20
0.0
 30
0.0
  3
SW_CENTERMARKSYMBOL_11
  1

  0
LINE
  5
262
330
25F
100
AcDbEntity
  8
0
  6
Continuous
 62
     0
370
     0
100
AcDbLine
 10
0.0
 20
0.0
 30
0.0
 11
0.0
 21
0.0984251969
 31
0.0
  0
LINE
  5
263
330
25F
100
AcDbEntity
  8
0
  6
Continuous
 62
     0
370
     0
100
AcDbLine
 10
0.0
 20
0.0
 30
0.0
 11
-0.0984251969
 21
0.0
 31
0.0
  0
LINE
  5
264
330
25F
100
AcDbEntity
  8
0
  6
Continuous
 62
     0
370
     0
100
AcDbLine
 10
0.0
 20
0.0
 30
0.0
 11
0.0
 21
-0.0984251969
 31
0.0
  0
LINE
  5
265
330
25F
100
AcDbEntity
  8
0
  6
Continuous
 62
     0
370
     0
100
AcDbLine
 10
0.0
 20
0.0
 30
0.0
 11
0.0984251969
 21
0.0
 31
0.0
  0
LINE
  5
266
330
25F
100
AcDbEntity
  8
0
  6
Continuous
 62
     0
370
     0
100
AcDbLine
 10
0.0
 20
0.0984251969
 30
0.0
 11
0.0
 21
0.1734251969
 31
0.0
  0
LINE
  5
267
330
25F
100
AcDbEntity
  8
0
  6
Continuous
 62
     0
370
     0
100
AcDbLine
 10
-0.0984251969
 20
0.0
 30
0.0
 11
-0.1734251969
 21
0.0
 31
0.0
  0
LINE
  5
268
330
25F
100
AcDbEntity
  8
0
  6
Continuous
 62
     0
370
     0
100
AcDbLine
 10
0.0
 20
-0.0984251969
 30
0.0
 11
0.0
 21
-0.1734251969
 31
0.0
  0
LINE
  5
269
330
25F
100
AcDbEntity
  8
0
  6
Continuous
 62
     0
370
     0
100
AcDbLine
 10
0.0984251969
 20
0.0
 30
0.0
 11
0.1734251969
 21
0.0
 31
0.0
  0
ENDBLK
  5
261
330
25F
100
AcDbEntity
  8
0
100
AcDbBlockEnd
  0
BLOCK
  5
26C
330
26B
100
AcDbEntity
  8
0
100
AcDbBlockBegin
  2
SW_CENTERMARKSYMBOL_12
 70
     0
 10
0.0
 20
0.0
 30
0.0
  3
SW_CENTERMARKSYMBOL_12
  1

  0
LINE
  5
26E
330
26B
100
AcDbEntity
  8
0
  6
Continuous
 62
     0
370
     0
100
AcDbLine
 10
0.0
 20
0.0
 30
0.0
 11
0.0
 21
0.0984251969
 31
0.0
  0
LINE
  5
26F
330
26B
100
AcDbEntity
  8
0
  6
Continuous
 62
     0
370
     0
100
AcDbLine
 10
0.0
 20
0.0
 30
0.0
 11
-0.0984251969
 21
0.0
 31
0.0
  0
LINE
  5
270
330
26B
100
AcDbEntity
  8
0
  6
Continuous
 62
     0
370
     0
100
AcDbLine
 10
0.0
 20
0.0
 30
0.0
 11
0.0
 21
-0.0984251969
 31
0.0
  0
LINE
  5
271
330
26B
100
AcDbEntity
  8
0
  6
Continuous
 62
     0
370
     0
100
AcDbLine
 10
0.0
 20
0.0
 30
0.0
 11
0.0984251969
 21
0.0
 31
0.0
  0
LINE
  5
272
330
26B
100
AcDbEntity
  8
0
  6
Continuous
 62
     0
370
     0
100
AcDbLine
 10
0.0
 20
0.0984251969
 30
0.0
 11
0.0
 21
0.1734251969
 31
0.0
  0
LINE
  5
273
330
26B
100
AcDbEntity
  8
0
  6
Continuous
 62
     0
370
     0
100
AcDbLine
 10
-0.0984251969
 20
0.0
 30
0.0
 11
-0.1734251969
 21
0.0
 31
0.0
  0
LINE
  5
274
330
26B
100
AcDbEntity
  8
0
  6
Continuous
 62
     0
370
     0
100
AcDbLine
 10
0.0
 20
-0.0984251969
 30
0.0
 11
0.0
 21
-0.1734251969
 31
0.0
  0
LINE
  5
275
330
26B
100
AcDbEntity
  8
0
  6
Continuous
 62
     0
370
     0
100
AcDbLine
 10
0.0984251969
 20
0.0
 30
0.0
 11
0.1734251969
 21
0.0
 31
0.0
  0
ENDBLK
  5
26D
330
26B
100
AcDbEntity
  8
0
100
AcDbBlockEnd
  0
BLOCK
  5
278
330
277
100
AcDbEntity
  8
0
100
AcDbBlockBegin
  2
SW_CENTERMARKSYMBOL_13
 70
     0
 10
0.0
 20
0.0
 30
0.0
  3
SW_CENTERMARKSYMBOL_13
  1

  0
LINE
  5
27A
330
277
100
AcDbEntity
  8
0
  6
Continuous
 62
     0
370
     0
100
AcDbLine
 10
0.0
 20
0.0
 30
0.0
 11
0.0
 21
0.0984251969
 31
0.0
  0
LINE
  5
27B
330
277
100
AcDbEntity
  8
0
  6
Continuous
 62
     0
370
     0
100
AcDbLine
 10
0.0
 20
0.0
 30
0.0
 11
-0.0984251969
 21
0.0
 31
0.0
  0
LINE
  5
27C
330
277
100
AcDbEntity
  8
0
  6
Continuous
 62
     0
370
     0
100
AcDbLine
 10
0.0
 20
0.0
 30
0.0
 11
0.0
 21
-0.0984251969
 31
0.0
  0
LINE
  5
27D
330
277
100
AcDbEntity
  8
0
  6
Continuous
 62
     0
370
     0
100
AcDbLine
 10
0.0
 20
0.0
 30
0.0
 11
0.0984251969
 21
0.0
 31
0.0
  0
LINE
  5
27E
330
277
100
AcDbEntity
  8
0
  6
Continuous
 62
     0
370
     0
100
AcDbLine
 10
0.0
 20
0.0984251969
 30
0.0
 11
0.0
 21
0.1734251969
 31
0.0
  0
LINE
  5
27F
330
277
100
AcDbEntity
  8
0
  6
Continuous
 62
     0
370
     0
100
AcDbLine
 10
-0.0984251969
 20
0.0
 30
0.0
 11
-0.1734251969
 21
0.0
 31
0.0
  0
LINE
  5
280
330
277
100
AcDbEntity
  8
0
  6
Continuous
 62
     0
370
     0
100
AcDbLine
 10
0.0
 20
-0.0984251969
 30
0.0
 11
0.0
 21
-0.1734251969
 31
0.0
  0
LINE
  5
281
330
277
100
AcDbEntity
  8
0
  6
Continuous
 62
     0
370
     0
100
AcDbLine
 10
0.0984251969
 20
0.0
 30
0.0
 11
0.1734251969
 21
0.0
 31
0.0
  0
ENDBLK
  5
279
330
277
100
AcDbEntity
  8
0
100
AcDbBlockEnd
  0
BLOCK
  5
284
330
283
100
AcDbEntity
  8
0
100
AcDbBlockBegin
  2
SW_CENTERMARKSYMBOL_14
 70
     0
 10
0.0
 20
0.0
 30
0.0
  3
SW_CENTERMARKSYMBOL_14
  1

  0
LINE
  5
286
330
283
100
AcDbEntity
  8
0
  6
Continuous
 62
     0
370
     0
100
AcDbLine
 10
0.0
 20
0.0
 30
0.0
 11
0.0
 21
0.0984251969
 31
0.0
  0
LINE
  5
287
330
283
100
AcDbEntity
  8
0
  6
Continuous
 62
     0
370
     0
100
AcDbLine
 10
0.0
 20
0.0
 30
0.0
 11
-0.0984251969
 21
0.0
 31
0.0
  0
LINE
  5
288
330
283
100
AcDbEntity
  8
0
  6
Continuous
 62
     0
370
     0
100
AcDbLine
 10
0.0
 20
0.0
 30
0.0
 11
0.0
 21
-0.0984251969
 31
0.0
  0
LINE
  5
289
330
283
100
AcDbEntity
  8
0
  6
Continuous
 62
     0
370
     0
100
AcDbLine
 10
0.0
 20
0.0
 30
0.0
 11
0.0984251969
 21
0.0
 31
0.0
  0
LINE
  5
28A
330
283
100
AcDbEntity
  8
0
  6
Continuous
 62
     0
370
     0
100
AcDbLine
 10
0.0
 20
0.0984251969
 30
0.0
 11
0.0
 21
0.1734251969
 31
0.0
  0
LINE
  5
28B
330
283
100
AcDbEntity
  8
0
  6
Continuous
 62
     0
370
     0
100
AcDbLine
 10
-0.0984251969
 20
0.0
 30
0.0
 11
-0.1734251969
 21
0.0
 31
0.0
  0
LINE
  5
28C
330
283
100
AcDbEntity
  8
0
  6
Continuous
 62
     0
370
     0
100
AcDbLine
 10
0.0
 20
-0.0984251969
 30
0.0
 11
0.0
 21
-0.1734251969
 31
0.0
  0
LINE
  5
28D
330
283
100
AcDbEntity
  8
0
  6
Continuous
 62
     0
370
     0
100
AcDbLine
 10
0.0984251969
 20
0.0
 30
0.0
 11
0.1734251969
 21
0.0
 31
0.0
  0
ENDBLK
  5
285
330
283
100
AcDbEntity
  8
0
100
AcDbBlockEnd
  0
BLOCK
  5
290
330
28F
100
AcDbEntity
  8
0
100
AcDbBlockBegin
  2
SW_CENTERMARKSYMBOL_15
 70
     0
 10
0.0
 20
0.0
 30
0.0
  3
SW_CENTERMARKSYMBOL_15
  1

  0
LINE
  5
292
330
28F
100
AcDbEntity
  8
0
  6
Continuous
 62
     0
370
     0
100
AcDbLine
 10
0.0
 20
0.0
 30
0.0
 11
0.0
 21
0.0984251969
 31
0.0
  0
LINE
  5
293
330
28F
100
AcDbEntity
  8
0
  6
Continuous
 62
     0
370
     0
100
AcDbLine
 10
0.0
 20
0.0
 30
0.0
 11
-0.0984251969
 21
0.0
 31
0.0
  0
LINE
  5
294
330
28F
100
AcDbEntity
  8
0
  6
Continuous
 62
     0
370
     0
100
AcDbLine
 10
0.0
 20
0.0
 30
0.0
 11
0.0
 21
-0.0984251969
 31
0.0
  0
LINE
  5
295
330
28F
100
AcDbEntity
  8
0
  6
Continuous
 62
     0
370
     0
100
AcDbLine
 10
0.0
 20
0.0
 30
0.0
 11
0.0984251969
 21
0.0
 31
0.0
  0
LINE
  5
296
330
28F
100
AcDbEntity
  8
0
  6
Continuous
 62
     0
370
     0
100
AcDbLine
 10
0.0
 20
0.0984251969
 30
0.0
 11
0.0
 21
0.1734251969
 31
0.0
  0
LINE
  5
297
330
28F
100
AcDbEntity
  8
0
  6
Continuous
 62
     0
370
     0
100
AcDbLine
 10
-0.0984251969
 20
0.0
 30
0.0
 11
-0.1734251969
 21
0.0
 31
0.0
  0
LINE
  5
298
330
28F
100
AcDbEntity
  8
0
  6
Continuous
 62
     0
370
     0
100
AcDbLine
 10
0.0
 20
-0.0984251969
 30
0.0
 11
0.0
 21
-0.1734251969
 31
0.0
  0
LINE
  5
299
330
28F
100
AcDbEntity
  8
0
  6
Continuous
 62
     0
370
     0
100
AcDbLine
 10
0.0984251969
 20
0.0
 30
0.0
 11
0.1734251969
 21
0.0
 31
0.0
  0
ENDBLK
  5
291
330
28F
100
AcDbEntity
  8
0
100
AcDbBlockEnd
  0
BLOCK
  5
29C
330
29B
100
AcDbEntity
  8
0
100
AcDbBlockBegin
  2
SW_CENTERMARKSYMBOL_16
 70
     0
 10
0.0
 20
0.0
 30
0.0
  3
SW_CENTERMARKSYMBOL_16
  1

  0
LINE
  5
29E
330
29B
100
AcDbEntity
  8
0
  6
Continuous
 62
     0
370
     0
100
AcDbLine
 10
0.0
 20
0.0
 30
0.0
 11
0.0
 21
0.0984251969
 31
0.0
  0
LINE
  5
29F
330
29B
100
AcDbEntity
  8
0
  6
Continuous
 62
     0
370
     0
100
AcDbLine
 10
0.0
 20
0.0
 30
0.0
 11
-0.0984251969
 21
0.0
 31
0.0
  0
LINE
  5
2A0
330
29B
100
AcDbEntity
  8
0
  6
Continuous
 62
     0
370
     0
100
AcDbLine
 10
0.0
 20
0.0
 30
0.0
 11
0.0
 21
-0.0984251969
 31
0.0
  0
LINE
  5
2A1
330
29B
100
AcDbEntity
  8
0
  6
Continuous
 62
     0
370
     0
100
AcDbLine
 10
0.0
 20
0.0
 30
0.0
 11
0.0984251969
 21
0.0
 31
0.0
  0
LINE
  5
2A2
330
29B
100
AcDbEntity
  8
0
  6
Continuous
 62
     0
370
     0
100
AcDbLine
 10
0.0
 20
0.0984251969
 30
0.0
 11
0.0
 21
0.1734251969
 31
0.0
  0
LINE
  5
2A3
330
29B
100
AcDbEntity
  8
0
  6
Continuous
 62
     0
370
     0
100
AcDbLine
 10
-0.0984251969
 20
0.0
 30
0.0
 11
-0.1734251969
 21
0.0
 31
0.0
  0
LINE
  5
2A4
330
29B
100
AcDbEntity
  8
0
  6
Continuous
 62
     0
370
     0
100
AcDbLine
 10
0.0
 20
-0.0984251969
 30
0.0
 11
0.0
 21
-0.1734251969
 31
0.0
  0
LINE
  5
2A5
330
29B
100
AcDbEntity
  8
0
  6
Continuous
 62
     0
370
     0
100
AcDbLine
 10
0.0984251969
 20
0.0
 30
0.0
 11
0.1734251969
 21
0.0
 31
0.0
  0
ENDBLK
  5
29D
330
29B
100
AcDbEntity
  8
0
100
AcDbBlockEnd
  0
BLOCK
  5
2A8
330
2A7
100
AcDbEntity
  8
0
100
AcDbBlockBegin
  2
SW_CENTERMARKSYMBOL_17
 70
     0
 10
0.0
 20
0.0
 30
0.0
  3
SW_CENTERMARKSYMBOL_17
  1

  0
LINE
  5
2AA
330
2A7
100
AcDbEntity
  8
0
  6
Continuous
 62
     0
370
     0
100
AcDbLine
 10
0.0
 20
0.0
 30
0.0
 11
0.0
 21
0.0984251969
 31
0.0
  0
LINE
  5
2AB
330
2A7
100
AcDbEntity
  8
0
  6
Continuous
 62
     0
370
     0
100
AcDbLine
 10
0.0
 20
0.0
 30
0.0
 11
-0.0984251969
 21
0.0
 31
0.0
  0
LINE
  5
2AC
330
2A7
100
AcDbEntity
  8
0
  6
Continuous
 62
     0
370
     0
100
AcDbLine
 10
0.0
 20
0.0
 30
0.0
 11
0.0
 21
-0.0984251969
 31
0.0
  0
LINE
  5
2AD
330
2A7
100
AcDbEntity
  8
0
  6
Continuous
 62
     0
370
     0
100
AcDbLine
 10
0.0
 20
0.0
 30
0.0
 11
0.0984251969
 21
0.0
 31
0.0
  0
LINE
  5
2AE
330
2A7
100
AcDbEntity
  8
0
  6
Continuous
 62
     0
370
     0
100
AcDbLine
 10
0.0
 20
0.0984251969
 30
0.0
 11
0.0
 21
0.1734251969
 31
0.0
  0
LINE
  5
2AF
330
2A7
100
AcDbEntity
  8
0
  6
Continuous
 62
     0
370
     0
100
AcDbLine
 10
-0.0984251969
 20
0.0
 30
0.0
 11
-0.1734251969
 21
0.0
 31
0.0
  0
LINE
  5
2B0
330
2A7
100
AcDbEntity
  8
0
  6
Continuous
 62
     0
370
     0
100
AcDbLine
 10
0.0
 20
-0.0984251969
 30
0.0
 11
0.0
 21
-0.1734251969
 31
0.0
  0
LINE
  5
2B1
330
2A7
100
AcDbEntity
  8
0
  6
Continuous
 62
     0
370
     0
100
AcDbLine
 10
0.0984251969
 20
0.0
 30
0.0
 11
0.1734251969
 21
0.0
 31
0.0
  0
ENDBLK
  5
2A9
330
2A7
100
AcDbEntity
  8
0
100
AcDbBlockEnd
  0
BLOCK
  5
2B4
330
2B3
100
AcDbEntity
  8
0
100
AcDbBlockBegin
  2
SW_CENTERMARKSYMBOL_18
 70
     0
 10
0.0
 20
0.0
 30
0.0
  3
SW_CENTERMARKSYMBOL_18
  1

  0
LINE
  5
2B6
330
2B3
100
AcDbEntity
  8
0
  6
Continuous
 62
     0
370
     0
100
AcDbLine
 10
0.0
 20
0.0
 30
0.0
 11
0.0
 21
0.0984251969
 31
0.0
  0
LINE
  5
2B7
330
2B3
100
AcDbEntity
  8
0
  6
Continuous
 62
     0
370
     0
100
AcDbLine
 10
0.0
 20
0.0
 30
0.0
 11
-0.0984251969
 21
0.0
 31
0.0
  0
LINE
  5
2B8
330
2B3
100
AcDbEntity
  8
0
  6
Continuous
 62
     0
370
     0
100
AcDbLine
 10
0.0
 20
0.0
 30
0.0
 11
0.0
 21
-0.0984251969
 31
0.0
  0
LINE
  5
2B9
330
2B3
100
AcDbEntity
  8
0
  6
Continuous
 62
     0
370
     0
100
AcDbLine
 10
0.0
 20
0.0
 30
0.0
 11
0.0984251969
 21
0.0
 31
0.0
  0
LINE
  5
2BA
330
2B3
100
AcDbEntity
  8
0
  6
Continuous
 62
     0
370
     0
100
AcDbLine
 10
0.0
 20
0.0984251969
 30
0.0
 11
0.0
 21
0.1734251969
 31
0.0
  0
LINE
  5
2BB
330
2B3
100
AcDbEntity
  8
0
  6
Continuous
 62
     0
370
     0
100
AcDbLine
 10
-0.0984251969
 20
0.0
 30
0.0
 11
-0.1734251969
 21
0.0
 31
0.0
  0
LINE
  5
2BC
330
2B3
100
AcDbEntity
  8
0
  6
Continuous
 62
     0
370
     0
100
AcDbLine
 10
0.0
 20
-0.0984251969
 30
0.0
 11
0.0
 21
-0.1734251969
 31
0.0
  0
LINE
  5
2BD
330
2B3
100
AcDbEntity
  8
0
  6
Continuous
 62
     0
370
     0
100
AcDbLine
 10
0.0984251969
 20
0.0
 30
0.0
 11
0.1734251969
 21
0.0
 31
0.0
  0
ENDBLK
  5
2B5
330
2B3
100
AcDbEntity
  8
0
100
AcDbBlockEnd
  0
BLOCK
  5
2CC
330
2CB
100
AcDbEntity
  8
0
100
AcDbBlockBegin
  2
*D44
 70
     1
 10
0.0
 20
0.0
 30
0.0
  3
*D44
  1

  0
INSERT
  5
2CE
330
2CB
100
AcDbEntity
  8
0
  6
Continuous
 62
     7
370
     0
100
AcDbBlockReference
  2
_CLOSED
 10
26.4830952845
 20
19.141772
 30
4.8239074137
 41
0.1041666667
 42
0.1041666667
 50
90.0
  0
INSERT
  5
2CF
330
2CB
100
AcDbEntity
  8
0
  6
Continuous
 62
     7
370
     0
100
AcDbBlockReference
  2
_CLOSED
 10
26.4830952845
 20
19.221772
 30
4.8239074137
 41
0.1041666667
 42
0.1041666667
 50
270.0
  0
LINE
  5
2D0
330
2CB
100
AcDbEntity
  8
0
  6
Continuous
 62
     7
370
     0
100
AcDbLine
 10
25.9246687254
 20
19.141772
 30
0.0
 11
26.5224653632
 21
19.141772
 31
0.0
  0
LINE
  5
2D1
330
2CB
100
AcDbEntity
  8
0
  6
Continuous
 62
     7
370
     0
100
AcDbLine
 10
25.9246687254
 20
19.221772
 30
0.0
 11
26.5224653632
 21
19.221772
 31
0.0
  0
LINE
  5
2D2
330
2CB
100
AcDbEntity
  8
0
  6
Continuous
 62
     7
370
     0
100
AcDbLine
 10
27.5773996143
 20
18.5783096626
 30
0.0
 11
26.4830952845
 21
18.5783096626
 31
0.0
  0
LINE
  5
2D3
330
2CB
100
AcDbEntity
  8
0
  6
Continuous
 62
     7
370
     0
100
AcDbLine
 10
26.4830952845
 20
18.5783096626
 30
0.0
 11
26.4830952845
 21
19.141772
 31
0.0
  0
LINE
  5
2D4
330
2CB
100
AcDbEntity
  8
0
  6
Continuous
 62
     7
370
     0
100
AcDbLine
 10
26.4830952845
 20
19.221772
 30
0.0
 11
26.4830952845
 21
19.4220925128
 31
0.0
  0
MTEXT
  5
2D5
330
2CB
100
AcDbEntity
  8
0
  6
Continuous
 62
     7
370
     0
100
AcDbMText
 10
26.5455952845
 20
18.9542877625
 30
0.0
 40
0.2916666667
 41
0.0
 71
     1
 72
     1
  1
0.080
  7
SLDTEXTSTYLE0
 73
     1
 44
1.0
  0
ENDBLK
  5
2CD
330
2CB
100
AcDbEntity
  8
0
100
AcDbBlockEnd
  0
BLOCK
  5
2EE
330
2ED
100
AcDbEntity
  8
0
100
AcDbBlockBegin
  2
*D45
 70
     1
 10
0.0
 20
0.0
 30
0.0
  3
*D45
  1

  0
INSERT
  5
2F0
330
2ED
100
AcDbEntity
  8
0
  6
Continuous
 62
     7
370
     0
100
AcDbBlockReference
  2
_ORIGIN
 10
37.4677488156
 20
19.8427198786
 30
0.0
 41
0.0320512821
 42
0.0320512821
 50
0.0
  0
LINE
  5
2F1
330
2ED
100
AcDbEntity
  8
0
  6
Continuous
 62
     7
370
     0
100
AcDbLine
 10
37.4677488156
 20
20.0075189903
 30
0.0
 11
37.4677488156
 21
19.8106685966
 31
0.0
  0
LINE
  5
2F2
330
2ED
100
AcDbEntity
  8
0
  6
Continuous
 62
     7
370
     0
100
AcDbLine
 10
37.4677488156
 20
20.0075189903
 30
0.0
 11
37.4677488156
 21
20.204369384
 31
0.0
  0
LINE
  5
2F3
330
2ED
100
AcDbEntity
  8
0
  6
Continuous
 62
     7
370
     0
100
AcDbLine
 10
37.4677488156
 20
20.204369384
 30
0.0
 11
37.4677488156
 21
21.2238843741
 31
0.0
  0
MTEXT
  5
2F4
330
2ED
100
AcDbEntity
  8
0
  6
Continuous
 62
     7
370
     0
100
AcDbMText
 10
37.3233019343
 20
19.5327676344
 30
0.0
 40
0.2916666667
 41
0.0
 71
     1
 72
     1
  1
0
  7
SLDTEXTSTYLE0
 11
6.123233995736766E-17
 21
1.0
 31
0.0
 73
     1
 44
1.0
  0
ENDBLK
  5
2EF
330
2ED
100
AcDbEntity
  8
0
100
AcDbBlockEnd
  0
BLOCK
  5
2F7
330
2F6
100
AcDbEntity
  8
0
100
AcDbBlockBegin
  2
*D46
 70
     1
 10
0.0
 20
0.0
 30
0.0
  3
*D46
  1

  0
INSERT
  5
2F9
330
2F6
100
AcDbEntity
  8
0
  6
Continuous
 62
     7
370
     0
100
AcDbBlockReference
  2
_CLOSED
 10
36.5259861173
 20
19.8427198786
 30
0.0
 41
0.1041666667
 42
0.1041666667
 50
180.0
  0
LINE
  5
2FA
330
2F6
100
AcDbEntity
  8
0
  6
Continuous
 62
     7
370
     0
100
AcDbLine
 10
36.5259861173
 20
20.0075189903
 30
0.0
 11
36.5259861173
 21
19.8106685966
 31
0.0
  0
LINE
  5
2FB
330
2F6
100
AcDbEntity
  8
0
  6
Continuous
 62
     7
370
     0
100
AcDbLine
 10
37.4677488156
 20
19.8427198786
 30
0.0
 11
36.5259861173
 21
19.8427198786
 31
0.0
  0
LINE
  5
2FC
330
2F6
100
AcDbEntity
  8
0
  6
Continuous
 62
     7
370
     0
100
AcDbLine
 10
36.5259861173
 20
20.0075189903
 30
0.0
 11
37.2802488156
 21
20.204369384
 31
0.0
  0
LINE
  5
2FD
330
2F6
100
AcDbEntity
  8
0
  6
Continuous
 62
     7
370
     0
100
AcDbLine
 10
37.2802488156
 20
20.204369384
 30
0.0
 11
37.2802488156
 21
21.3035731857
 31
0.0
  0
MTEXT
  5
2FE
330
2F6
100
AcDbEntity
  8
0
  6
Continuous
 62
     7
370
     0
100
AcDbMText
 10
36.3815392359
 20
18.7788642667
 30
0.0
 40
0.2916666667
 41
0.0
 71
     1
 72
     1
  1
0.188
  7
SLDTEXTSTYLE0
 11
6.123233995736766E-17
 21
1.0
 31
0.0
 73
     1
 44
1.0
  0
ENDBLK
  5
2F8
330
2F6
100
AcDbEntity
  8
0
100
AcDbBlockEnd
  0
BLOCK
  5
301
330
300
100
AcDbEntity
  8
0
100
AcDbBlockBegin
  2
*D47
 70
     1
 10
0.0
 20
0.0
 30
0.0
  3
*D47
  1

  0
INSERT
  5
303
330
300
100
AcDbEntity
  8
0
  6
Continuous
 62
     7
370
     0
100
AcDbBlockReference
  2
_CLOSED
 10
33.9024230122
 20
19.8427198786
 30
0.0
 41
0.1041666667
 42
0.1041666667
 50
180.0
  0
LINE
  5
304
330
300
100
AcDbEntity
  8
0
  6
Continuous
 62
     7
370
     0
100
AcDbLine
 10
33.9024230122
 20
21.3544825597
 30
0.0
 11
33.9024230122
 21
19.8106685966
 31
0.0
  0
LINE
  5
305
330
300
100
AcDbEntity
  8
0
  6
Continuous
 62
     7
370
     0
100
AcDbLine
 10
36.5259861173
 20
19.8427198786
 30
0.0
 11
33.9024230122
 21
19.8427198786
 31
0.0
  0
MTEXT
  5
306
330
300
100
AcDbEntity
  8
0
  6
Continuous
 62
     7
370
     0
100
AcDbMText
 10
33.7579761308
 20
18.7788642667
 30
0.0
 40
0.2916666667
 41
0.0
 71
     1
 72
     1
  1
3.565
  7
SLDTEXTSTYLE0
 11
6.123233995736766E-17
 21
1.0
 31
0.0
 73
     1
 44
1.0
  0
ENDBLK
  5
302
330
300
100
AcDbEntity
  8
0
100
AcDbBlockEnd
  0
BLOCK
  5
309
330
308
100
AcDbEntity
  8
0
100
AcDbBlockBegin
  2
*D48
 70
     1
 10
0.0
 20
0.0
 30
0.0
  3
*D48
  1

  0
INSERT
  5
30B
330
308
100
AcDbEntity
  8
0
  6
Continuous
 62
     7
370
     0
100
AcDbBlockReference
  2
_CLOSED
 10
31.3701445718
 20
19.8427198786
 30
0.0
 41
0.1041666667
 42
0.1041666667
 50
180.0
  0
LINE
  5
30C
330
308
100
AcDbEntity
  8
0
  6
Continuous
 62
     7
370
     0
100
AcDbLine
 10
31.3701445718
 20
20.0075189903
 30
0.0
 11
31.3701445718
 21
19.8106685966
 31
0.0
  0
LINE
  5
30D
330
308
100
AcDbEntity
  8
0
  6
Continuous
 62
     7
370
     0
100
AcDbLine
 10
33.9024230122
 20
19.8427198786
 30
0.0
 11
31.3701445718
 21
19.8427198786
 31
0.0
  0
LINE
  5
30E
330
308
100
AcDbEntity
  8
0
  6
Continuous
 62
     7
370
     0
100
AcDbLine
 10
31.3701445718
 20
20.0075189903
 30
0.0
 11
30.5245972088
 21
20.204369384
 31
0.0
  0
LINE
  5
30F
330
308
100
AcDbEntity
  8
0
  6
Continuous
 62
     7
370
     0
100
AcDbLine
 10
30.5245972088
 20
20.204369384
 30
0.0
 11
30.5245972088
 21
21.4053919336
 31
0.0
  0
MTEXT
  5
310
330
308
100
AcDbEntity
  8
0
  6
Continuous
 62
     7
370
     0
100
AcDbMText
 10
31.2256976905
 20
18.7788642667
 30
0.0
 40
0.2916666667
 41
0.0
 71
     1
 72
     1
  1
6.943
  7
SLDTEXTSTYLE0
 11
6.123233995736766E-17
 21
1.0
 31
0.0
 73
     1
 44
1.0
  0
ENDBLK
  5
30A
330
308
100
AcDbEntity
  8
0
100
AcDbBlockEnd
  0
BLOCK
  5
313
330
312
100
AcDbEntity
  8
0
100
AcDbBlockBegin
  2
*D49
 70
     1
 10
0.0
 20
0.0
 30
0.0
  3
*D49
  1

  0
INSERT
  5
315
330
312
100
AcDbEntity
  8
0
  6
Continuous
 62
     7
370
     0
100
AcDbBlockReference
  2
_CLOSED
 10
30.3370972088
 20
19.8427198786
 30
0.0
 41
0.1041666667
 42
0.1041666667
 50
180.0
  0
LINE
  5
316
330
312
100
AcDbEntity
  8
0
  6
Continuous
 62
     7
370
     0
100
AcDbLine
 10
30.3370972088
 20
21.3192186
 30
0.0
 11
30.3370972088
 21
19.8106685966
 31
0.0
  0
LINE
  5
317
330
312
100
AcDbEntity
  8
0
  6
Continuous
 62
     7
370
     0
100
AcDbLine
 10
31.3701445718
 20
19.8427198786
 30
0.0
 11
30.3370972088
 21
19.8427198786
 31
0.0
  0
MTEXT
  5
318
330
312
100
AcDbEntity
  8
0
  6
Continuous
 62
     7
370
     0
100
AcDbMText
 10
30.1926503274
 20
18.7788642667
 30
0.0
 40
0.2916666667
 41
0.0
 71
     1
 72
     1
  1
7.131
  7
SLDTEXTSTYLE0
 11
6.123233995736766E-17
 21
1.0
 31
0.0
 73
     1
 44
1.0
  0
ENDBLK
  5
314
330
312
100
AcDbEntity
  8
0
100
AcDbBlockEnd
  0
BLOCK
  5
31B
330
31A
100
AcDbEntity
  8
0
100
AcDbBlockBegin
  2
*D50
 70
     1
 10
0.0
 20
0.0
 30
0.0
  3
*D50
  1

  0
INSERT
  5
31D
330
31A
100
AcDbEntity
  8
0
  6
Continuous
 62
     7
370
     0
100
AcDbBlockReference
  2
_ORIGIN
 10
38.3170302384
 20
21.1542636519
 30
0.0
 41
0.0320512821
 42
0.0320512821
 50
0.0
  0
LINE
  5
31E
330
31A
100
AcDbEntity
  8
0
  6
Continuous
 62
     7
370
     0
100
AcDbLine
 10
38.1522311268
 20
21.1542636519
 30
0.0
 11
38.3490815205
 21
21.1542636519
 31
0.0
  0
LINE
  5
31F
330
31A
100
AcDbEntity
  8
0
  6
Continuous
 62
     7
370
     0
100
AcDbLine
 10
38.1522311268
 20
21.1542636519
 30
0.0
 11
37.9553807331
 21
21.1542636519
 31
0.0
  0
LINE
  5
320
330
31A
100
AcDbEntity
  8
0
  6
Continuous
 62
     7
370
     0
100
AcDbLine
 10
37.9553807331
 20
21.1542636519
 30
0.0
 11
37.3964730452
 21
21.1542636519
 31
0.0
  0
MTEXT
  5
321
330
31A
100
AcDbEntity
  8
0
  6
Continuous
 62
     7
370
     0
100
AcDbMText
 10
38.4115815205
 20
21.2987105333
 30
0.0
 40
0.2916666667
 41
0.0
 71
     1
 72
     1
  1
0
  7
SLDTEXTSTYLE0
 73
     1
 44
1.0
  0
ENDBLK
  5
31C
330
31A
100
AcDbEntity
  8
0
100
AcDbBlockEnd
  0
BLOCK
  5
324
330
323
100
AcDbEntity
  8
0
100
AcDbBlockBegin
  2
*D51
 70
     1
 10
0.0
 20
0.0
 30
0.0
  3
*D51
  1

  0
INSERT
  5
326
330
323
100
AcDbEntity
  8
0
  6
Continuous
 62
     7
370
     0
100
AcDbBlockReference
  2
_CLOSED
 10
38.3170302384
 20
21.6155612968
 30
0.0
 41
0.1041666667
 42
0.1041666667
 50
90.0
  0
LINE
  5
327
330
323
100
AcDbEntity
  8
0
  6
Continuous
 62
     7
370
     0
100
AcDbLine
 10
38.1522311268
 20
21.6155612968
 30
0.0
 11
38.3490815205
 21
21.6155612968
 31
0.0
  0
LINE
  5
328
330
323
100
AcDbEntity
  8
0
  6
Continuous
 62
     7
370
     0
100
AcDbLine
 10
38.3170302384
 20
21.1542636519
 30
0.0
 11
38.3170302384
 21
21.6155612968
 31
0.0
  0
LINE
  5
329
330
323
100
AcDbEntity
  8
0
  6
Continuous
 62
     7
370
     0
100
AcDbLine
 10
38.1522311268
 20
21.6155612968
 30
0.0
 11
37.9553807331
 21
21.3429432645
 31
0.0
  0
LINE
  5
32A
330
323
100
AcDbEntity
  8
0
  6
Continuous
 62
     7
370
     0
100
AcDbLine
 10
37.9553807331
 20
21.3429432645
 30
0.0
 11
37.3196188944
 21
21.3429432645
 31
0.0
  0
MTEXT
  5
32B
330
323
100
AcDbEntity
  8
0
  6
Continuous
 62
     7
370
     0
100
AcDbMText
 10
38.4115815205
 20
21.7600081782
 30
0.0
 40
0.2916666667
 41
0.0
 71
     1
 72
     1
  1
0.189
  7
SLDTEXTSTYLE0
 73
     1
 44
1.0
  0
ENDBLK
  5
325
330
323
100
AcDbEntity
  8
0
100
AcDbBlockEnd
  0
BLOCK
  5
32E
330
32D
100
AcDbEntity
  8
0
100
AcDbBlockBegin
  2
*D52
 70
     1
 10
0.0
 20
0.0
 30
0.0
  3
*D52
  1

  0
INSERT
  5
330
330
32D
100
AcDbEntity
  8
0
  6
Continuous
 62
     7
370
     0
100
AcDbBlockReference
  2
_CLOSED
 10
38.3170302384
 20
24.4542178539
 30
0.0
 41
0.1041666667
 42
0.1041666667
 50
90.0
  0
LINE
  5
331
330
32D
100
AcDbEntity
  8
0
  6
Continuous
 62
     7
370
     0
100
AcDbLine
 10
38.1522311268
 20
24.4542178539
 30
0.0
 11
38.3490815205
 21
24.4542178539
 31
0.0
  0
LINE
  5
332
330
32D
100
AcDbEntity
  8
0
  6
Continuous
 62
     7
370
     0
100
AcDbLine
 10
38.3170302384
 20
21.6155612968
 30
0.0
 11
38.3170302384
 21
24.4542178539
 31
0.0
  0
LINE
  5
333
330
32D
100
AcDbEntity
  8
0
  6
Continuous
 62
     7
370
     0
100
AcDbLine
 10
38.1522311268
 20
24.4542178539
 30
0.0
 11
37.9553807331
 21
24.5546097987
 31
0.0
  0
LINE
  5
334
330
32D
100
AcDbEntity
  8
0
  6
Continuous
 62
     7
370
     0
100
AcDbLine
 10
37.9553807331
 20
24.5546097987
 30
0.0
 11
37.3196188944
 21
24.5546097987
 31
0.0
  0
MTEXT
  5
335
330
32D
100
AcDbEntity
  8
0
  6
Continuous
 62
     7
370
     0
100
AcDbMText
 10
38.4115815205
 20
24.5986647352
 30
0.0
 40
0.2916666667
 41
0.0
 71
     1
 72
     1
  1
3.400
  7
SLDTEXTSTYLE0
 73
     1
 44
1.0
  0
ENDBLK
  5
32F
330
32D
100
AcDbEntity
  8
0
100
AcDbBlockEnd
  0
BLOCK
  5
338
330
337
100
AcDbEntity
  8
0
100
AcDbBlockBegin
  2
*D53
 70
     1
 10
0.0
 20
0.0
 30
0.0
  3
*D53
  1

  0
INSERT
  5
33A
330
337
100
AcDbEntity
  8
0
  6
Continuous
 62
     7
370
     0
100
AcDbBlockReference
  2
_CLOSED
 10
38.3170302384
 20
25.7134564134
 30
0.0
 41
0.1041666667
 42
0.1041666667
 50
90.0
  0
LINE
  5
33B
330
337
100
AcDbEntity
  8
0
  6
Continuous
 62
     7
370
     0
100
AcDbLine
 10
38.1522311268
 20
25.7134564134
 30
0.0
 11
38.3490815205
 21
25.7134564134
 31
0.0
  0
LINE
  5
33C
330
337
100
AcDbEntity
  8
0
  6
Continuous
 62
     7
370
     0
100
AcDbLine
 10
38.3170302384
 20
24.4542178539
 30
0.0
 11
38.3170302384
 21
25.7134564134
 31
0.0
  0
LINE
  5
33D
330
337
100
AcDbEntity
  8
0
  6
Continuous
 62
     7
370
     0
100
AcDbLine
 10
38.1522311268
 20
25.7134564134
 30
0.0
 11
37.9553807331
 21
24.8145558199
 31
0.0
  0
LINE
  5
33E
330
337
100
AcDbEntity
  8
0
  6
Continuous
 62
     7
370
     0
100
AcDbLine
 10
37.9553807331
 20
24.8145558199
 30
0.0
 11
30.5639672875
 21
24.8145558199
 31
0.0
  0
MTEXT
  5
33F
330
337
100
AcDbEntity
  8
0
  6
Continuous
 62
     7
370
     0
100
AcDbMText
 10
38.4115815205
 20
25.8579032948
 30
0.0
 40
0.2916666667
 41
0.0
 71
     1
 72
     1
  1
3.660
  7
SLDTEXTSTYLE0
 73
     1
 44
1.0
  0
ENDBLK
  5
339
330
337
100
AcDbEntity
  8
0
100
AcDbBlockEnd
  0
BLOCK
  5
342
330
341
100
AcDbEntity
  8
0
100
AcDbBlockBegin
  2
*D54
 70
     1
 10
0.0
 20
0.0
 30
0.0
  3
*D54
  1

  0
INSERT
  5
344
330
341
100
AcDbEntity
  8
0
  6
Continuous
 62
     7
370
     0
100
AcDbBlockReference
  2
_CLOSED
 10
38.3170302384
 20
27.9542178539
 30
0.0
 41
0.1041666667
 42
0.1041666667
 50
90.0
  0
LINE
  5
345
330
341
100
AcDbEntity
  8
0
  6
Continuous
 62
     7
370
     0
100
AcDbLine
 10
38.1522311268
 20
27.9542178539
 30
0.0
 11
38.3490815205
 21
27.9542178539
 31
0.0
  0
LINE
  5
346
330
341
100
AcDbEntity
  8
0
  6
Continuous
 62
     7
370
     0
100
AcDbLine
 10
38.3170302384
 20
25.7134564134
 30
0.0
 11
38.3170302384
 21
27.9542178539
 31
0.0
  0
LINE
  5
347
330
341
100
AcDbEntity
  8
0
  6
Continuous
 62
     7
370
     0
100
AcDbLine
 10
38.1522311268
 20
27.9542178539
 30
0.0
 11
37.9553807331
 21
28.0546097987
 31
0.0
  0
LINE
  5
348
330
341
100
AcDbEntity
  8
0
  6
Continuous
 62
     7
370
     0
100
AcDbLine
 10
37.9553807331
 20
28.0546097987
 30
0.0
 11
37.3196188944
 21
28.0546097987
 31
0.0
  0
MTEXT
  5
349
330
341
100
AcDbEntity
  8
0
  6
Continuous
 62
     7
370
     0
100
AcDbMText
 10
38.4115815205
 20
28.0986647352
 30
0.0
 40
0.2916666667
 41
0.0
 71
     1
 72
     1
  1
6.900
  7
SLDTEXTSTYLE0
 73
     1
 44
1.0
  0
ENDBLK
  5
343
330
341
100
AcDbEntity
  8
0
100
AcDbBlockEnd
  0
BLOCK
  5
34C
330
34B
100
AcDbEntity
  8
0
100
AcDbBlockBegin
  2
*D55
 70
     1
 10
0.0
 20
0.0
 30
0.0
  3
*D55
  1

  0
INSERT
  5
34E
330
34B
100
AcDbEntity
  8
0
  6
Continuous
 62
     7
370
     0
100
AcDbBlockReference
  2
_CLOSED
 10
38.3170302384
 20
28.7902816932
 30
0.0
 41
0.1041666667
 42
0.1041666667
 50
90.0
  0
LINE
  5
34F
330
34B
100
AcDbEntity
  8
0
  6
Continuous
 62
     7
370
     0
100
AcDbLine
 10
38.1522311268
 20
28.7902816932
 30
0.0
 11
38.3490815205
 21
28.7902816932
 31
0.0
  0
LINE
  5
350
330
34B
100
AcDbEntity
  8
0
  6
Continuous
 62
     7
370
     0
100
AcDbLine
 10
38.3170302384
 20
27.9542178539
 30
0.0
 11
38.3170302384
 21
28.7902816932
 31
0.0
  0
LINE
  5
351
330
34B
100
AcDbEntity
  8
0
  6
Continuous
 62
     7
370
     0
100
AcDbLine
 10
38.1522311268
 20
28.7902816932
 30
0.0
 11
37.9553807331
 21
28.3145558199
 31
0.0
  0
LINE
  5
352
330
34B
100
AcDbEntity
  8
0
  6
Continuous
 62
     7
370
     0
100
AcDbLine
 10
37.9553807331
 20
28.3145558199
 30
0.0
 11
30.5639672875
 21
28.3145558199
 31
0.0
  0
MTEXT
  5
353
330
34B
100
AcDbEntity
  8
0
  6
Continuous
 62
     7
370
     0
100
AcDbMText
 10
38.4115815205
 20
28.9347285745
 30
0.0
 40
0.2916666667
 41
0.0
 71
     1
 72
     1
  1
7.160
  7
SLDTEXTSTYLE0
 73
     1
 44
1.0
  0
ENDBLK
  5
34D
330
34B
100
AcDbEntity
  8
0
100
AcDbBlockEnd
  0
BLOCK
  5
356
330
355
100
AcDbEntity
  8
0
100
AcDbBlockBegin
  2
*D56
 70
     1
 10
0.0
 20
0.0
 30
0.0
  3
*D56
  1

  0
INSERT
  5
358
330
355
100
AcDbEntity
  8
0
  6
Continuous
 62
     7
370
     0
100
AcDbBlockReference
  2
_CLOSED
 10
38.3170302384
 20
31.2662763329
 30
0.0
 41
0.1041666667
 42
0.1041666667
 50
90.0
  0
LINE
  5
359
330
355
100
AcDbEntity
  8
0
  6
Continuous
 62
     7
370
     0
100
AcDbLine
 10
37.3196188944
 20
31.2662763329
 30
0.0
 11
38.3490815205
 21
31.2662763329
 31
0.0
  0
LINE
  5
35A
330
355
100
AcDbEntity
  8
0
  6
Continuous
 62
     7
370
     0
100
AcDbLine
 10
38.3170302384
 20
28.7902816932
 30
0.0
 11
38.3170302384
 21
31.2662763329
 31
0.0
  0
MTEXT
  5
35B
330
355
100
AcDbEntity
  8
0
  6
Continuous
 62
     7
370
     0
100
AcDbMText
 10
38.4115815205
 20
31.4107232143
 30
0.0
 40
0.2916666667
 41
0.0
 71
     1
 72
     1
  1
10.112
  7
SLDTEXTSTYLE0
 73
     1
 44
1.0
  0
ENDBLK
  5
357
330
355
100
AcDbEntity
  8
0
100
AcDbBlockEnd
  0
BLOCK
  5
35E
330
35D
100
AcDbEntity
  8
0
100
AcDbBlockBegin
  2
*D57
 70
     1
 10
0.0
 20
0.0
 30
0.0
  3
*D57
  1

  0
INSERT
  5
360
330
35D
100
AcDbEntity
  8
0
  6
Continuous
 62
     7
370
     0
100
AcDbBlockReference
  2
_CLOSED
 10
38.3170302384
 20
31.8724129235
 30
0.0
 41
0.1041666667
 42
0.1041666667
 50
90.0
  0
LINE
  5
361
330
35D
100
AcDbEntity
  8
0
  6
Continuous
 62
     7
370
     0
100
AcDbLine
 10
37.5071188944
 20
31.8724129235
 30
0.0
 11
38.3490815205
 21
31.8724129235
 31
0.0
  0
LINE
  5
362
330
35D
100
AcDbEntity
  8
0
  6
Continuous
 62
     7
370
     0
100
AcDbLine
 10
38.3170302384
 20
31.2662763329
 30
0.0
 11
38.3170302384
 21
31.8724129235
 31
0.0
  0
MTEXT
  5
363
330
35D
100
AcDbEntity
  8
0
  6
Continuous
 62
     7
370
     0
100
AcDbMText
 10
38.4115815205
 20
32.0168598049
 30
0.0
 40
0.2916666667
 41
0.0
 71
     1
 72
     1
  1
10.718
  7
SLDTEXTSTYLE0
 73
     1
 44
1.0
  0
ENDBLK
  5
35F
330
35D
100
AcDbEntity
  8
0
100
AcDbBlockEnd
  0
BLOCK
  5
366
330
365
100
AcDbEntity
  8
0
100
AcDbBlockBegin
  2
*D58
 70
     1
 10
0.0
 20
0.0
 30
0.0
  3
*D58
  1

  0
INSERT
  5
368
330
365
100
AcDbEntity
  8
0
  6
Continuous
 62
     7
370
     0
100
AcDbBlockReference
  2
_CLOSED
 10
37.333253522
 20
21.2898819688
 30
3.7514926693
 41
0.1041666667
 42
0.1041666667
 50
134.9694310454
  0
LINE
  5
369
330
365
100
AcDbEntity
  8
0
  6
Continuous
 62
     7
370
     0
100
AcDbLine
 10
37.333253522
 20
21.2898819688
 30
0.0
 11
39.2943306456
 21
19.3267111454
 31
0.0
  0
LINE
  5
36A
330
365
100
AcDbEntity
  8
0
  6
Continuous
 62
     7
370
     0
100
AcDbLine
 10
37.2272441092
 20
21.3960045602
 30
0.0
 11
37.333253522
 21
21.2898819688
 31
0.0
  0
LINE
  5
36B
330
365
100
AcDbEntity
  8
0
  6
Continuous
 62
     7
370
     0
100
AcDbLine
 10
39.2943306456
 20
19.3267111454
 30
0.0
 11
40.8913668958
 21
19.3267111454
 31
0.0
  0
MTEXT
  5
36C
330
365
100
AcDbEntity
  8
0
  6
Continuous
 62
     7
370
     0
100
AcDbMText
 10
39.4193306456
 20
19.7026892361
 30
0.0
 40
0.2916666667
 41
0.0
 71
     1
 72
     1
  1
%%c
  7
SLDTEXTSTYLE0
 73
     1
 44
1.0
  0
MTEXT
  5
36D
330
365
100
AcDbEntity
  8
0
  6
Continuous
 62
     7
370
     0
100
AcDbMText
 10
39.859562566
 20
19.7026892453
 30
0.0
 40
0.2916666667
 41
0.0
 71
     1
 72
     1
  1
0.150
  7
SLDTEXTSTYLE0
 73
     1
 44
1.0
  0
ENDBLK
  5
367
330
365
100
AcDbEntity
  8
0
100
AcDbBlockEnd
  0
BLOCK
  5
371
330
370
100
AcDbEntity
  8
0
100
AcDbBlockBegin
  2
*D59
 70
     1
 10
0.0
 20
0.0
 30
0.0
  3
*D59
  1

  0
ARC
  5
373
330
370
100
AcDbEntity
  8
0
  6
Continuous
 62
     7
370
     0
100
AcDbCircle
 10
30.3370972071
 20
21.2600666503
 30
0.0
 40
1.101585667548312
100
AcDbArc
 50
359.1365240241
 51
33.5600418027
  0
ARC
  5
374
330
370
100
AcDbEntity
  8
0
  6
Continuous
 62
     7
370
     0
100
AcDbCircle
 10
30.3370972071
 20
21.2600666503
 30
0.0
 40
1.101585667548314
100
AcDbArc
 50
76.6978974552
 51
90.0
  0
INSERT
  5
375
330
370
100
AcDbEntity
  8
0
  6
Continuous
 62
     7
370
     0
100
AcDbBlockReference
  2
_CLOSED
 10
31.438557781
 20
21.2434658333
 30
3.7514926693
 41
0.1041666667
 42
0.1041666667
 50
271.83745614
  0
INSERT
  5
376
330
370
100
AcDbEntity
  8
0
  6
Continuous
 62
     7
370
     0
100
AcDbBlockReference
  2
_CLOSED
 10
30.3370972071
 20
22.3616523179
 30
3.7514926693
 41
0.1041666667
 42
0.1041666667
 50
177.2990678841
  0
MTEXT
  5
377
330
370
100
AcDbEntity
  8
0
  6
Continuous
 62
     7
370
     0
100
AcDbMText
 10
30.4868473353
 20
22.245012911
 30
0.0
 40
0.2916666667
 41
0.0
 71
     1
 72
     1
  1
90.86°
  7
SLDTEXTSTYLE0
 73
     1
 44
1.0
  0
ENDBLK
  5
372
330
370
100
AcDbEntity
  8
0
100
AcDbBlockEnd
  0
BLOCK
  5
37A
330
379
100
AcDbEntity
  8
0
100
AcDbBlockBegin
  2
SW_NOTE_4
 70
     0
 10
0.0
 20
0.0
 30
0.0
  3
SW_NOTE_4
  1

  0
LINE
  5
37C
330
379
100
AcDbEntity
  8
0
  6
Continuous
 62
     0
370
     0
100
AcDbLine
 10
-0.5975963496
 20
-0.0049086107
 30
0.0
 11
0.0
 21
1.0301586291
 31
0.0
  0
LINE
  5
37D
330
379
100
AcDbEntity
  8
0
  6
Continuous
 62
     0
370
     0
100
AcDbLine
 10
0.0
 20
1.0301586291
 30
0.0
 11
0.5975963496
 21
-0.0049086107
 31
0.0
  0
LINE
  5
37E
330
379
100
AcDbEntity
  8
0
  6
Continuous
 62
     0
370
     0
100
AcDbLine
 10
0.5975963496
 20
-0.0049086107
 30
0.0
 11
-0.5975963496
 21
-0.0049086107
 31
0.0
  0
MTEXT
  5
37F
330
379
100
AcDbEntity
  8
0
  6
Continuous
 62
     0
370
     0
100
AcDbMText
 10
-0.107754636
 20
0.5476207096
 30
0.0
 40
0.2916666667
 41
0.0
 71
     1
 72
     1
  1
1
  7
SLDTEXTSTYLE0
 73
     1
 44
1.0
  0
ENDBLK
  5
37B
330
379
100
AcDbEntity
  8
0
100
AcDbBlockEnd
  0
BLOCK
  5
399
330
398
100
AcDbEntity
  8
0
100
AcDbBlockBegin
  2
*D61
 70
     1
 10
0.0
 20
0.0
 30
0.0
  3
*D61
  1

  0
INSERT
  5
39B
330
398
100
AcDbEntity
  8
0
  6
Continuous
 62
     7
370
     0
100
AcDbBlockReference
  2
_CLOSED
 10
40.3655123685
 20
20.518499574
 30
-29.7929890391
 41
0.1041666667
 42
0.1041666667
 50
360.0
  0
INSERT
  5
39C
330
398
100
AcDbEntity
  8
0
  6
Continuous
 62
     7
370
     0
100
AcDbBlockReference
  2
_CLOSED
 10
40.4455123685
 20
20.518499574
 30
-29.7929890391
 41
0.1041666667
 42
0.1041666667
 50
180.0
  0
LINE
  5
39D
330
398
100
AcDbEntity
  8
0
  6
Continuous
 62
     7
370
     0
100
AcDbLine
 10
40.3655123685
 20
21.2238843741
 30
0.0
 11
40.3655123685
 21
20.4791294952
 31
0.0
  0
LINE
  5
39E
330
398
100
AcDbEntity
  8
0
  6
Continuous
 62
     7
370
     0
100
AcDbLine
 10
40.4455123685
 20
21.2238843741
 30
0.0
 11
40.4455123685
 21
20.4791294952
 31
0.0
  0
LINE
  5
39F
330
398
100
AcDbEntity
  8
0
  6
Continuous
 62
     7
370
     0
100
AcDbLine
 10
40.3655123685
 20
20.518499574
 30
0.0
 11
40.1651918557
 21
20.518499574
 31
0.0
  0
LINE
  5
3A0
330
398
100
AcDbEntity
  8
0
  6
Continuous
 62
     7
370
     0
100
AcDbLine
 10
40.3655123685
 20
20.518499574
 30
0.0
 11
40.4455123685
 21
20.518499574
 31
0.0
  0
LINE
  5
3A1
330
398
100
AcDbEntity
  8
0
  6
Continuous
 62
     7
370
     0
100
AcDbLine
 10
40.4455123685
 20
20.518499574
 30
0.0
 11
42.2505440537
 21
20.518499574
 31
0.0
  0
MTEXT
  5
3A2
330
398
100
AcDbEntity
  8
0
  6
Continuous
 62
     7
370
     0
100
AcDbMText
 10
41.2187397238
 20
20.8944776739
 30
0.0
 40
0.2916666667
 41
0.0
 71
     1
 72
     1
  1
0.080
  7
SLDTEXTSTYLE0
 73
     1
 44
1.0
  0
ENDBLK
  5
39A
330
398
100
AcDbEntity
  8
0
100
AcDbBlockEnd
  0
BLOCK
  5
3B7
330
3B6
100
AcDbEntity
  8
0
100
AcDbBlockBegin
  2
*D62
 70
     1
 10
0.0
 20
0.0
 30
0.0
  3
*D62
  1

  0
INSERT
  5
3B9
330
3B6
100
AcDbEntity
  8
0
  6
Continuous
 62
     7
370
     0
100
AcDbBlockReference
  2
_ORIGIN
 10
20.6530239582
 20
7.1574315648
 30
0.0
 41
0.0320512821
 42
0.0320512821
 50
0.0
  0
LINE
  5
3BA
330
3B6
100
AcDbEntity
  8
0
  6
Continuous
 62
     7
370
     0
100
AcDbLine
 10
20.8178230698
 20
7.1574315648
 30
0.0
 11
20.6209726761
 21
7.1574315648
 31
0.0
  0
LINE
  5
3BB
330
3B6
100
AcDbEntity
  8
0
  6
Continuous
 62
     7
370
     0
100
AcDbLine
 10
20.8178230698
 20
7.1574315648
 30
0.0
 11
21.0146734635
 21
7.1574315648
 31
0.0
  0
LINE
  5
3BC
330
3B6
100
AcDbEntity
  8
0
  6
Continuous
 62
     7
370
     0
100
AcDbLine
 10
21.0146734635
 20
7.1574315648
 30
0.0
 11
22.0887466994
 21
7.1574315648
 31
0.0
  0
MTEXT
  5
3BD
330
3B6
100
AcDbEntity
  8
0
  6
Continuous
 62
     7
370
     0
100
AcDbMText
 10
20.3430717139
 20
7.3018784461
 30
0.0
 40
0.2916666667
 41
0.0
 71
     1
 72
     1
  1
0
  7
SLDTEXTSTYLE0
 73
     1
 44
1.0
  0
ENDBLK
  5
3B8
330
3B6
100
AcDbEntity
  8
0
100
AcDbBlockEnd
  0
BLOCK
  5
3C0
330
3BF
100
AcDbEntity
  8
0
100
AcDbBlockBegin
  2
*D63
 70
     1
 10
0.0
 20
0.0
 30
0.0
  3
*D63
  1

  0
INSERT
  5
3C2
330
3BF
100
AcDbEntity
  8
0
  6
Continuous
 62
     7
370
     0
100
AcDbBlockReference
  2
_CLOSED
 10
20.6530239582
 20
7.6251119251
 30
0.0
 41
0.1041666667
 42
0.1041666667
 50
90.0
  0
LINE
  5
3C3
330
3BF
100
AcDbEntity
  8
0
  6
Continuous
 62
     7
370
     0
100
AcDbLine
 10
20.8178230698
 20
7.6251119251
 30
0.0
 11
20.6209726761
 21
7.6251119251
 31
0.0
  0
LINE
  5
3C4
330
3BF
100
AcDbEntity
  8
0
  6
Continuous
 62
     7
370
     0
100
AcDbLine
 10
20.6530239582
 20
7.1574315648
 30
0.0
 11
20.6530239582
 21
7.6251119251
 31
0.0
  0
LINE
  5
3C5
330
3BF
100
AcDbEntity
  8
0
  6
Continuous
 62
     7
370
     0
100
AcDbLine
 10
20.8178230698
 20
7.6251119251
 30
0.0
 11
21.0146734635
 21
7.3449315648
 31
0.0
  0
LINE
  5
3C6
330
3BF
100
AcDbEntity
  8
0
  6
Continuous
 62
     7
370
     0
100
AcDbLine
 10
21.0146734635
 20
7.3449315648
 30
0.0
 11
21.9987665268
 21
7.3449315648
 31
0.0
  0
MTEXT
  5
3C7
330
3BF
100
AcDbEntity
  8
0
  6
Continuous
 62
     7
370
     0
100
AcDbMText
 10
19.5891683463
 20
7.7695588064
 30
0.0
 40
0.2916666667
 41
0.0
 71
     1
 72
     1
  1
0.188
  7
SLDTEXTSTYLE0
 73
     1
 44
1.0
  0
ENDBLK
  5
3C1
330
3BF
100
AcDbEntity
  8
0
100
AcDbBlockEnd
  0
BLOCK
  5
3CA
330
3C9
100
AcDbEntity
  8
0
100
AcDbBlockBegin
  2
*D64
 70
     1
 10
0.0
 20
0.0
 30
0.0
  3
*D64
  1

  0
INSERT
  5
3CC
330
3C9
100
AcDbEntity
  8
0
  6
Continuous
 62
     7
370
     0
100
AcDbBlockReference
  2
_CLOSED
 10
20.6530239582
 20
10.4137930017
 30
0.0
 41
0.1041666667
 42
0.1041666667
 50
90.0
  0
LINE
  5
3CD
330
3C9
100
AcDbEntity
  8
0
  6
Continuous
 62
     7
370
     0
100
AcDbLine
 10
21.9987665268
 20
10.4137930017
 30
0.0
 11
20.6209726761
 21
10.4137930017
 31
0.0
  0
LINE
  5
3CE
330
3C9
100
AcDbEntity
  8
0
  6
Continuous
 62
     7
370
     0
100
AcDbLine
 10
20.6530239582
 20
7.6251119251
 30
0.0
 11
20.6530239582
 21
10.4137930017
 31
0.0
  0
MTEXT
  5
3CF
330
3C9
100
AcDbEntity
  8
0
  6
Continuous
 62
     7
370
     0
100
AcDbMText
 10
19.5891683463
 20
10.558239883
 30
0.0
 40
0.2916666667
 41
0.0
 71
     1
 72
     1
  1
3.256
  7
SLDTEXTSTYLE0
 73
     1
 44
1.0
  0
ENDBLK
  5
3CB
330
3C9
100
AcDbEntity
  8
0
100
AcDbBlockEnd
  0
BLOCK
  5
3D2
330
3D1
100
AcDbEntity
  8
0
100
AcDbBlockBegin
  2
*D65
 70
     1
 10
0.0
 20
0.0
 30
0.0
  3
*D65
  1

  0
INSERT
  5
3D4
330
3D1
100
AcDbEntity
  8
0
  6
Continuous
 62
     7
370
     0
100
AcDbBlockReference
  2
_CLOSED
 10
20.6530239582
 20
13.9137930017
 30
0.0
 41
0.1041666667
 42
0.1041666667
 50
90.0
  0
LINE
  5
3D5
330
3D1
100
AcDbEntity
  8
0
  6
Continuous
 62
     7
370
     0
100
AcDbLine
 10
21.9987665268
 20
13.9137930017
 30
0.0
 11
20.6209726761
 21
13.9137930017
 31
0.0
  0
LINE
  5
3D6
330
3D1
100
AcDbEntity
  8
0
  6
Continuous
 62
     7
370
     0
100
AcDbLine
 10
20.6530239582
 20
10.4137930017
 30
0.0
 11
20.6530239582
 21
13.9137930017
 31
0.0
  0
MTEXT
  5
3D7
330
3D1
100
AcDbEntity
  8
0
  6
Continuous
 62
     7
370
     0
100
AcDbMText
 10
19.5891683463
 20
14.058239883
 30
0.0
 40
0.2916666667
 41
0.0
 71
     1
 72
     1
  1
6.756
  7
SLDTEXTSTYLE0
 73
     1
 44
1.0
  0
ENDBLK
  5
3D3
330
3D1
100
AcDbEntity
  8
0
100
AcDbBlockEnd
  0
BLOCK
  5
3DA
330
3D9
100
AcDbEntity
  8
0
100
AcDbBlockBegin
  2
*D66
 70
     1
 10
0.0
 20
0.0
 30
0.0
  3
*D66
  1

  0
INSERT
  5
3DC
330
3D9
100
AcDbEntity
  8
0
  6
Continuous
 62
     7
370
     0
100
AcDbBlockReference
  2
_CLOSED
 10
20.6530239582
 20
16.4901459528
 30
0.0
 41
0.1041666667
 42
0.1041666667
 50
90.0
  0
LINE
  5
3DD
330
3D9
100
AcDbEntity
  8
0
  6
Continuous
 62
     7
370
     0
100
AcDbLine
 10
20.8178230698
 20
16.4901459528
 30
0.0
 11
20.6209726761
 21
16.4901459528
 31
0.0
  0
LINE
  5
3DE
330
3D9
100
AcDbEntity
  8
0
  6
Continuous
 62
     7
370
     0
100
AcDbLine
 10
20.6530239582
 20
13.9137930017
 30
0.0
 11
20.6530239582
 21
16.4901459528
 31
0.0
  0
LINE
  5
3DF
330
3D9
100
AcDbEntity
  8
0
  6
Continuous
 62
     7
370
     0
100
AcDbLine
 10
20.8178230698
 20
16.4901459528
 30
0.0
 11
21.0146734635
 21
16.9826544386
 31
0.0
  0
LINE
  5
3E0
330
3D9
100
AcDbEntity
  8
0
  6
Continuous
 62
     7
370
     0
100
AcDbLine
 10
21.0146734635
 20
16.9826544386
 30
0.0
 11
21.9987665268
 21
16.9826544386
 31
0.0
  0
MTEXT
  5
3E1
330
3D9
100
AcDbEntity
  8
0
  6
Continuous
 62
     7
370
     0
100
AcDbMText
 10
19.5891683463
 20
16.6345928342
 30
0.0
 40
0.2916666667
 41
0.0
 71
     1
 72
     1
  1
9.825
  7
SLDTEXTSTYLE0
 73
     1
 44
1.0
  0
ENDBLK
  5
3DB
330
3D9
100
AcDbEntity
  8
0
100
AcDbBlockEnd
  0
BLOCK
  5
3E4
330
3E3
100
AcDbEntity
  8
0
100
AcDbBlockBegin
  2
*D67
 70
     1
 10
0.0
 20
0.0
 30
0.0
  3
*D67
  1

  0
INSERT
  5
3E6
330
3E3
100
AcDbEntity
  8
0
  6
Continuous
 62
     7
370
     0
100
AcDbBlockReference
  2
_CLOSED
 10
20.6530239582
 20
17.1906045758
 30
0.0
 41
0.1041666667
 42
0.1041666667
 50
90.0
  0
LINE
  5
3E7
330
3E3
100
AcDbEntity
  8
0
  6
Continuous
 62
     7
370
     0
100
AcDbLine
 10
21.8123148633
 20
17.1906045758
 30
0.0
 11
20.6209726761
 21
17.1906045758
 31
0.0
  0
LINE
  5
3E8
330
3E3
100
AcDbEntity
  8
0
  6
Continuous
 62
     7
370
     0
100
AcDbLine
 10
20.6530239582
 20
16.4901459528
 30
0.0
 11
20.6530239582
 21
17.1906045758
 31
0.0
  0
MTEXT
  5
3E9
330
3E3
100
AcDbEntity
  8
0
  6
Continuous
 62
     7
370
     0
100
AcDbMText
 10
19.3737673841
 20
17.3350514571
 30
0.0
 40
0.2916666667
 41
0.0
 71
     1
 72
     1
  1
10.033
  7
SLDTEXTSTYLE0
 73
     1
 44
1.0
  0
ENDBLK
  5
3E5
330
3E3
100
AcDbEntity
  8
0
100
AcDbBlockEnd
  0
BLOCK
  5
3EC
330
3EB
100
AcDbEntity
  8
0
100
AcDbBlockBegin
  2
*D68
 70
     1
 10
0.0
 20
0.0
 30
0.0
  3
*D68
  1

  0
INSERT
  5
3EE
330
3EB
100
AcDbEntity
  8
0
  6
Continuous
 62
     7
370
     0
100
AcDbBlockReference
  2
_ORIGIN
 10
22.0240618024
 20
6.0817269413
 30
0.0
 41
0.0320512821
 42
0.0320512821
 50
0.0
  0
LINE
  5
3EF
330
3EB
100
AcDbEntity
  8
0
  6
Continuous
 62
     7
370
     0
100
AcDbLine
 10
22.0240618024
 20
6.2465260529
 30
0.0
 11
22.0240618024
 21
6.0496756592
 31
0.0
  0
LINE
  5
3F0
330
3EB
100
AcDbEntity
  8
0
  6
Continuous
 62
     7
370
     0
100
AcDbLine
 10
22.0240618024
 20
6.2465260529
 30
0.0
 11
22.0240618024
 21
6.4433764466
 31
0.0
  0
LINE
  5
3F1
330
3EB
100
AcDbEntity
  8
0
  6
Continuous
 62
     7
370
     0
100
AcDbLine
 10
22.0240618024
 20
6.4433764466
 30
0.0
 11
22.0240618024
 21
7.2221298029
 31
0.0
  0
MTEXT
  5
3F2
330
3EB
100
AcDbEntity
  8
0
  6
Continuous
 62
     7
370
     0
100
AcDbMText
 10
21.879614921
 20
5.7717746971
 30
0.0
 40
0.2916666667
 41
0.0
 71
     1
 72
     1
  1
0
  7
SLDTEXTSTYLE0
 11
6.123233995736766E-17
 21
1.0
 31
0.0
 73
     1
 44
1.0
  0
ENDBLK
  5
3ED
330
3EB
100
AcDbEntity
  8
0
100
AcDbBlockEnd
  0
BLOCK
  5
3F5
330
3F4
100
AcDbEntity
  8
0
100
AcDbBlockBegin
  2
*D69
 70
     1
 10
0.0
 20
0.0
 30
0.0
  3
*D69
  1

  0
INSERT
  5
3F7
330
3F4
100
AcDbEntity
  8
0
  6
Continuous
 62
     7
370
     0
100
AcDbBlockReference
  2
_CLOSED
 10
22.4853861562
 20
6.0817269413
 30
0.0
 41
0.1041666667
 42
0.1041666667
 50
0.0
  0
LINE
  5
3F8
330
3F4
100
AcDbEntity
  8
0
  6
Continuous
 62
     7
370
     0
100
AcDbLine
 10
22.4853861562
 20
6.2465260529
 30
0.0
 11
22.4853861562
 21
6.0496756592
 31
0.0
  0
LINE
  5
3F9
330
3F4
100
AcDbEntity
  8
0
  6
Continuous
 62
     7
370
     0
100
AcDbLine
 10
22.0240618024
 20
6.0817269413
 30
0.0
 11
22.4853861562
 21
6.0817269413
 31
0.0
  0
LINE
  5
3FA
330
3F4
100
AcDbEntity
  8
0
  6
Continuous
 62
     7
370
     0
100
AcDbLine
 10
22.4853861562
 20
6.2465260529
 30
0.0
 11
22.2115618024
 21
6.4433764466
 31
0.0
  0
LINE
  5
3FB
330
3F4
100
AcDbEntity
  8
0
  6
Continuous
 62
     7
370
     0
100
AcDbLine
 10
22.2115618024
 20
6.4433764466
 30
0.0
 11
22.2115618024
 21
7.1321362892
 31
0.0
  0
MTEXT
  5
3FC
330
3F4
100
AcDbEntity
  8
0
  6
Continuous
 62
     7
370
     0
100
AcDbMText
 10
22.3409392748
 20
5.0178713294
 30
0.0
 40
0.2916666667
 41
0.0
 71
     1
 72
     1
  1
0.188
  7
SLDTEXTSTYLE0
 11
6.123233995736766E-17
 21
1.0
 31
0.0
 73
     1
 44
1.0
  0
ENDBLK
  5
3F6
330
3F4
100
AcDbEntity
  8
0
100
AcDbBlockEnd
  0
BLOCK
  5
3FF
330
3FE
100
AcDbEntity
  8
0
100
AcDbBlockBegin
  2
*D70
 70
     1
 10
0.0
 20
0.0
 30
0.0
  3
*D70
  1

  0
INSERT
  5
401
330
3FE
100
AcDbEntity
  8
0
  6
Continuous
 62
     7
370
     0
100
AcDbBlockReference
  2
_CLOSED
 10
26.0271841249
 20
6.0817269413
 30
0.0
 41
0.1041666667
 42
0.1041666667
 50
0.0
  0
LINE
  5
402
330
3FE
100
AcDbEntity
  8
0
  6
Continuous
 62
     7
370
     0
100
AcDbLine
 10
26.0271841249
 20
7.1321362892
 30
0.0
 11
26.0271841249
 21
6.0496756592
 31
0.0
  0
LINE
  5
403
330
3FE
100
AcDbEntity
  8
0
  6
Continuous
 62
     7
370
     0
100
AcDbLine
 10
22.4853861562
 20
6.0817269413
 30
0.0
 11
26.0271841249
 21
6.0817269413
 31
0.0
  0
MTEXT
  5
404
330
3FE
100
AcDbEntity
  8
0
  6
Continuous
 62
     7
370
     0
100
AcDbMText
 10
25.8827372435
 20
5.0178713294
 30
0.0
 40
0.2916666667
 41
0.0
 71
     1
 72
     1
  1
4.003
  7
SLDTEXTSTYLE0
 11
6.123233995736766E-17
 21
1.0
 31
0.0
 73
     1
 44
1.0
  0
ENDBLK
  5
400
330
3FE
100
AcDbEntity
  8
0
100
AcDbBlockEnd
  0
BLOCK
  5
407
330
406
100
AcDbEntity
  8
0
100
AcDbBlockBegin
  2
*D71
 70
     1
 10
0.0
 20
0.0
 30
0.0
  3
*D71
  1

  0
INSERT
  5
409
330
406
100
AcDbEntity
  8
0
  6
Continuous
 62
     7
370
     0
100
AcDbBlockReference
  2
_CLOSED
 10
29.200810373
 20
6.0817269413
 30
0.0
 41
0.1041666667
 42
0.1041666667
 50
0.0
  0
LINE
  5
40A
330
406
100
AcDbEntity
  8
0
  6
Continuous
 62
     7
370
     0
100
AcDbLine
 10
29.200810373
 20
6.2465260529
 30
0.0
 11
29.200810373
 21
6.0496756592
 31
0.0
  0
LINE
  5
40B
330
406
100
AcDbEntity
  8
0
  6
Continuous
 62
     7
370
     0
100
AcDbLine
 10
26.0271841249
 20
6.0817269413
 30
0.0
 11
29.200810373
 21
6.0817269413
 31
0.0
  0
LINE
  5
40C
330
406
100
AcDbEntity
  8
0
  6
Continuous
 62
     7
370
     0
100
AcDbLine
 10
29.200810373
 20
6.2465260529
 30
0.0
 11
29.8428064474
 21
6.4433764466
 31
0.0
  0
LINE
  5
40D
330
406
100
AcDbEntity
  8
0
  6
Continuous
 62
     7
370
     0
100
AcDbLine
 10
29.8428064474
 20
6.4433764466
 30
0.0
 11
29.8428064474
 21
7.1321362892
 31
0.0
  0
MTEXT
  5
40E
330
406
100
AcDbEntity
  8
0
  6
Continuous
 62
     7
370
     0
100
AcDbMText
 10
29.0563634916
 20
5.0178713294
 30
0.0
 40
0.2916666667
 41
0.0
 71
     1
 72
     1
  1
7.819
  7
SLDTEXTSTYLE0
 11
6.123233995736766E-17
 21
1.0
 31
0.0
 73
     1
 44
1.0
  0
ENDBLK
  5
408
330
406
100
AcDbEntity
  8
0
100
AcDbBlockEnd
  0
BLOCK
  5
411
330
410
100
AcDbEntity
  8
0
100
AcDbBlockBegin
  2
*D72
 70
     1
 10
0.0
 20
0.0
 30
0.0
  3
*D72
  1

  0
INSERT
  5
413
330
410
100
AcDbEntity
  8
0
  6
Continuous
 62
     7
370
     0
100
AcDbBlockReference
  2
_CLOSED
 10
30.0303064474
 20
6.0817269413
 30
0.0
 41
0.1041666667
 42
0.1041666667
 50
0.0
  0
LINE
  5
414
330
410
100
AcDbEntity
  8
0
  6
Continuous
 62
     7
370
     0
100
AcDbLine
 10
30.0303064474
 20
7.2232047063
 30
0.0
 11
30.0303064474
 21
6.0496756592
 31
0.0
  0
LINE
  5
415
330
410
100
AcDbEntity
  8
0
  6
Continuous
 62
     7
370
     0
100
AcDbLine
 10
29.200810373
 20
6.0817269413
 30
0.0
 11
30.0303064474
 21
6.0817269413
 31
0.0
  0
MTEXT
  5
416
330
410
100
AcDbEntity
  8
0
  6
Continuous
 62
     7
370
     0
100
AcDbMText
 10
29.8858595661
 20
5.0178713294
 30
0.0
 40
0.2916666667
 41
0.0
 71
     1
 72
     1
  1
8.006
  7
SLDTEXTSTYLE0
 11
6.123233995736766E-17
 21
1.0
 31
0.0
 73
     1
 44
1.0
  0
ENDBLK
  5
412
330
410
100
AcDbEntity
  8
0
100
AcDbBlockEnd
  0
BLOCK
  5
419
330
418
100
AcDbEntity
  8
0
100
AcDbBlockBegin
  2
*D73
 70
     1
 10
0.0
 20
0.0
 30
0.0
  3
*D73
  1

  0
INSERT
  5
41B
330
418
100
AcDbEntity
  8
0
  6
Continuous
 62
     7
370
     0
100
AcDbBlockReference
  2
_CLOSED
 10
22.1741744506
 20
7.2799147521
 30
0.04
 41
0.1041666667
 42
0.1041666667
 50
60.0993203468
  0
LINE
  5
41C
330
418
100
AcDbEntity
  8
0
  6
Continuous
 62
     7
370
     0
100
AcDbLine
 10
22.1741744506
 20
7.2799147521
 30
0.0
 11
21.7634532458
 21
6.5656682916
 31
0.0
  0
LINE
  5
41D
330
418
100
AcDbEntity
  8
0
  6
Continuous
 62
     7
370
     0
100
AcDbLine
 10
22.2489491541
 20
7.4099483774
 30
0.0
 11
22.1741744506
 21
7.2799147521
 31
0.0
  0
LINE
  5
41E
330
418
100
AcDbEntity
  8
0
  6
Continuous
 62
     7
370
     0
100
AcDbLine
 10
21.7634532458
 20
6.5656682916
 30
0.0
 11
20.1664169955
 21
6.5656682916
 31
0.0
  0
MTEXT
  5
41F
330
418
100
AcDbEntity
  8
0
  6
Continuous
 62
     7
370
     0
100
AcDbMText
 10
20.2289169955
 20
6.9416463823
 30
0.0
 40
0.2916666667
 41
0.0
 71
     1
 72
     1
  1
%%c
  7
SLDTEXTSTYLE0
 73
     1
 44
1.0
  0
MTEXT
  5
420
330
418
100
AcDbEntity
  8
0
  6
Continuous
 62
     7
370
     0
100
AcDbMText
 10
20.669148916
 20
6.9416463915
 30
0.0
 40
0.2916666667
 41
0.0
 71
     1
 72
     1
  1
0.150
  7
SLDTEXTSTYLE0
 73
     1
 44
1.0
  0
ENDBLK
  5
41A
330
418
100
AcDbEntity
  8
0
100
AcDbBlockEnd
  0
BLOCK
  5
423
330
422
100
AcDbEntity
  8
0
100
AcDbBlockBegin
  2
SW_NOTE_5
 70
     0
 10
0.0
 20
0.0
 30
0.0
  3
SW_NOTE_5
  1

  0
LINE
  5
425
330
422
100
AcDbEntity
  8
0
  6
Continuous
 62
     0
370
     0
100
AcDbLine
 10
-0.2987981748
 20
-0.5224422307
 30
0.0
 11
0.2987981748
 21
0.5126250092
 31
0.0
  0
LINE
  5
426
330
422
100
AcDbEntity
  8
0
  6
Continuous
 62
     0
370
     0
100
AcDbLine
 10
0.2987981748
 20
0.5126250092
 30
0.0
 11
0.8963945243
 21
-0.5224422307
 31
0.0
  0
LINE
  5
427
330
422
100
AcDbEntity
  8
0
  6
Continuous
 62
     0
370
     0
100
AcDbLine
 10
0.8963945243
 20
-0.5224422307
 30
0.0
 11
-0.2987981748
 21
-0.5224422307
 31
0.0
  0
MTEXT
  5
428
330
422
100
AcDbEntity
  8
0
  6
Continuous
 62
     0
370
     0
100
AcDbMText
 10
0.1910435387
 20
0.0300870897
 30
0.0
 40
0.2916666667
 41
0.0
 71
     1
 72
     1
  1
1
  7
SLDTEXTSTYLE0
 73
     1
 44
1.0
  0
ENDBLK
  5
424
330
422
100
AcDbEntity
  8
0
100
AcDbBlockEnd
  0
BLOCK
  5
42C
330
42B
100
AcDbEntity
  8
0
100
AcDbBlockBegin
  2
SW_CENTERMARKSYMBOL_19
 70
     0
 10
0.0
 20
0.0
 30
0.0
  3
SW_CENTERMARKSYMBOL_19
  1

  0
LINE
  5
42E
330
42B
100
AcDbEntity
  8
0
  6
Continuous
 62
     0
370
     0
100
AcDbLine
 10
0.0
 20
0.0
 30
0.0
 11
0.0
 21
0.0984251969
 31
0.0
  0
LINE
  5
42F
330
42B
100
AcDbEntity
  8
0
  6
Continuous
 62
     0
370
     0
100
AcDbLine
 10
0.0
 20
0.0
 30
0.0
 11
-0.0984251969
 21
0.0
 31
0.0
  0
LINE
  5
430
330
42B
100
AcDbEntity
  8
0
  6
Continuous
 62
     0
370
     0
100
AcDbLine
 10
0.0
 20
0.0
 30
0.0
 11
0.0
 21
-0.0984251969
 31
0.0
  0
LINE
  5
431
330
42B
100
AcDbEntity
  8
0
  6
Continuous
 62
     0
370
     0
100
AcDbLine
 10
0.0
 20
0.0
 30
0.0
 11
0.0984251969
 21
0.0
 31
0.0
  0
LINE
  5
432
330
42B
100
AcDbEntity
  8
0
  6
Continuous
 62
     0
370
     0
100
AcDbLine
 10
0.0
 20
0.0984251969
 30
0.0
 11
0.0
 21
0.1734251969
 31
0.0
  0
LINE
  5
433
330
42B
100
AcDbEntity
  8
0
  6
Continuous
 62
     0
370
     0
100
AcDbLine
 10
-0.0984251969
 20
0.0
 30
0.0
 11
-0.1734251969
 21
0.0
 31
0.0
  0
LINE
  5
434
330
42B
100
AcDbEntity
  8
0
  6
Continuous
 62
     0
370
     0
100
AcDbLine
 10
0.0
 20
-0.0984251969
 30
0.0
 11
0.0
 21
-0.1734251969
 31
0.0
  0
LINE
  5
435
330
42B
100
AcDbEntity
  8
0
  6
Continuous
 62
     0
370
     0
100
AcDbLine
 10
0.0984251969
 20
0.0
 30
0.0
 11
0.1734251969
 21
0.0
 31
0.0
  0
ENDBLK
  5
42D
330
42B
100
AcDbEntity
  8
0
100
AcDbBlockEnd
  0
BLOCK
  5
438
330
437
100
AcDbEntity
  8
0
100
AcDbBlockBegin
  2
SW_CENTERMARKSYMBOL_20
 70
     0
 10
0.0
 20
0.0
 30
0.0
  3
SW_CENTERMARKSYMBOL_20
  1

  0
LINE
  5
43A
330
437
100
AcDbEntity
  8
0
  6
Continuous
 62
     0
370
     0
100
AcDbLine
 10
0.0
 20
0.0
 30
0.0
 11
0.0
 21
0.0984251969
 31
0.0
  0
LINE
  5
43B
330
437
100
AcDbEntity
  8
0
  6
Continuous
 62
     0
370
     0
100
AcDbLine
 10
0.0
 20
0.0
 30
0.0
 11
-0.0984251969
 21
0.0
 31
0.0
  0
LINE
  5
43C
330
437
100
AcDbEntity
  8
0
  6
Continuous
 62
     0
370
     0
100
AcDbLine
 10
0.0
 20
0.0
 30
0.0
 11
0.0
 21
-0.0984251969
 31
0.0
  0
LINE
  5
43D
330
437
100
AcDbEntity
  8
0
  6
Continuous
 62
     0
370
     0
100
AcDbLine
 10
0.0
 20
0.0
 30
0.0
 11
0.0984251969
 21
0.0
 31
0.0
  0
LINE
  5
43E
330
437
100
AcDbEntity
  8
0
  6
Continuous
 62
     0
370
     0
100
AcDbLine
 10
0.0
 20
0.0984251969
 30
0.0
 11
0.0
 21
0.1734251969
 31
0.0
  0
LINE
  5
43F
330
437
100
AcDbEntity
  8
0
  6
Continuous
 62
     0
370
     0
100
AcDbLine
 10
-0.0984251969
 20
0.0
 30
0.0
 11
-0.1734251969
 21
0.0
 31
0.0
  0
LINE
  5
440
330
437
100
AcDbEntity
  8
0
  6
Continuous
 62
     0
370
     0
100
AcDbLine
 10
0.0
 20
-0.0984251969
 30
0.0
 11
0.0
 21
-0.1734251969
 31
0.0
  0
LINE
  5
441
330
437
100
AcDbEntity
  8
0
  6
Continuous
 62
     0
370
     0
100
AcDbLine
 10
0.0984251969
 20
0.0
 30
0.0
 11
0.1734251969
 21
0.0
 31
0.0
  0
ENDBLK
  5
439
330
437
100
AcDbEntity
  8
0
100
AcDbBlockEnd
  0
BLOCK
  5
444
330
443
100
AcDbEntity
  8
0
100
AcDbBlockBegin
  2
SW_CENTERMARKSYMBOL_21
 70
     0
 10
0.0
 20
0.0
 30
0.0
  3
SW_CENTERMARKSYMBOL_21
  1

  0
LINE
  5
446
330
443
100
AcDbEntity
  8
0
  6
Continuous
 62
     0
370
     0
100
AcDbLine
 10
0.0
 20
0.0
 30
0.0
 11
0.0
 21
0.0984251969
 31
0.0
  0
LINE
  5
447
330
443
100
AcDbEntity
  8
0
  6
Continuous
 62
     0
370
     0
100
AcDbLine
 10
0.0
 20
0.0
 30
0.0
 11
-0.0984251969
 21
0.0
 31
0.0
  0
LINE
  5
448
330
443
100
AcDbEntity
  8
0
  6
Continuous
 62
     0
370
     0
100
AcDbLine
 10
0.0
 20
0.0
 30
0.0
 11
0.0
 21
-0.0984251969
 31
0.0
  0
LINE
  5
449
330
443
100
AcDbEntity
  8
0
  6
Continuous
 62
     0
370
     0
100
AcDbLine
 10
0.0
 20
0.0
 30
0.0
 11
0.0984251969
 21
0.0
 31
0.0
  0
LINE
  5
44A
330
443
100
AcDbEntity
  8
0
  6
Continuous
 62
     0
370
     0
100
AcDbLine
 10
0.0
 20
0.0984251969
 30
0.0
 11
0.0
 21
0.1734251969
 31
0.0
  0
LINE
  5
44B
330
443
100
AcDbEntity
  8
0
  6
Continuous
 62
     0
370
     0
100
AcDbLine
 10
-0.0984251969
 20
0.0
 30
0.0
 11
-0.1734251969
 21
0.0
 31
0.0
  0
LINE
  5
44C
330
443
100
AcDbEntity
  8
0
  6
Continuous
 62
     0
370
     0
100
AcDbLine
 10
0.0
 20
-0.0984251969
 30
0.0
 11
0.0
 21
-0.1734251969
 31
0.0
  0
LINE
  5
44D
330
443
100
AcDbEntity
  8
0
  6
Continuous
 62
     0
370
     0
100
AcDbLine
 10
0.0984251969
 20
0.0
 30
0.0
 11
0.1734251969
 21
0.0
 31
0.0
  0
ENDBLK
  5
445
330
443
100
AcDbEntity
  8
0
100
AcDbBlockEnd
  0
BLOCK
  5
450
330
44F
100
AcDbEntity
  8
0
100
AcDbBlockBegin
  2
SW_CENTERMARKSYMBOL_22
 70
     0
 10
0.0
 20
0.0
 30
0.0
  3
SW_CENTERMARKSYMBOL_22
  1

  0
LINE
  5
452
330
44F
100
AcDbEntity
  8
0
  6
Continuous
 62
     0
370
     0
100
AcDbLine
 10
0.0
 20
0.0
 30
0.0
 11
0.0
 21
0.0984251969
 31
0.0
  0
LINE
  5
453
330
44F
100
AcDbEntity
  8
0
  6
Continuous
 62
     0
370
     0
100
AcDbLine
 10
0.0
 20
0.0
 30
0.0
 11
-0.0984251969
 21
0.0
 31
0.0
  0
LINE
  5
454
330
44F
100
AcDbEntity
  8
0
  6
Continuous
 62
     0
370
     0
100
AcDbLine
 10
0.0
 20
0.0
 30
0.0
 11
0.0
 21
-0.0984251969
 31
0.0
  0
LINE
  5
455
330
44F
100
AcDbEntity
  8
0
  6
Continuous
 62
     0
370
     0
100
AcDbLine
 10
0.0
 20
0.0
 30
0.0
 11
0.0984251969
 21
0.0
 31
0.0
  0
LINE
  5
456
330
44F
100
AcDbEntity
  8
0
  6
Continuous
 62
     0
370
     0
100
AcDbLine
 10
0.0
 20
0.0984251969
 30
0.0
 11
0.0
 21
0.1734251969
 31
0.0
  0
LINE
  5
457
330
44F
100
AcDbEntity
  8
0
  6
Continuous
 62
     0
370
     0
100
AcDbLine
 10
-0.0984251969
 20
0.0
 30
0.0
 11
-0.1734251969
 21
0.0
 31
0.0
  0
LINE
  5
458
330
44F
100
AcDbEntity
  8
0
  6
Continuous
 62
     0
370
     0
100
AcDbLine
 10
0.0
 20
-0.0984251969
 30
0.0
 11
0.0
 21
-0.1734251969
 31
0.0
  0
LINE
  5
459
330
44F
100
AcDbEntity
  8
0
  6
Continuous
 62
     0
370
     0
100
AcDbLine
 10
0.0984251969
 20
0.0
 30
0.0
 11
0.1734251969
 21
0.0
 31
0.0
  0
ENDBLK
  5
451
330
44F
100
AcDbEntity
  8
0
100
AcDbBlockEnd
  0
BLOCK
  5
45C
330
45B
100
AcDbEntity
  8
0
100
AcDbBlockBegin
  2
SW_CENTERMARKSYMBOL_23
 70
     0
 10
0.0
 20
0.0
 30
0.0
  3
SW_CENTERMARKSYMBOL_23
  1

  0
LINE
  5
45E
330
45B
100
AcDbEntity
  8
0
  6
Continuous
 62
     0
370
     0
100
AcDbLine
 10
0.0
 20
0.0
 30
0.0
 11
0.0
 21
0.0984251969
 31
0.0
  0
LINE
  5
45F
330
45B
100
AcDbEntity
  8
0
  6
Continuous
 62
     0
370
     0
100
AcDbLine
 10
0.0
 20
0.0
 30
0.0
 11
-0.0984251969
 21
0.0
 31
0.0
  0
LINE
  5
460
330
45B
100
AcDbEntity
  8
0
  6
Continuous
 62
     0
370
     0
100
AcDbLine
 10
0.0
 20
0.0
 30
0.0
 11
0.0
 21
-0.0984251969
 31
0.0
  0
LINE
  5
461
330
45B
100
AcDbEntity
  8
0
  6
Continuous
 62
     0
370
     0
100
AcDbLine
 10
0.0
 20
0.0
 30
0.0
 11
0.0984251969
 21
0.0
 31
0.0
  0
LINE
  5
462
330
45B
100
AcDbEntity
  8
0
  6
Continuous
 62
     0
370
     0
100
AcDbLine
 10
0.0
 20
0.0984251969
 30
0.0
 11
0.0
 21
0.1734251969
 31
0.0
  0
LINE
  5
463
330
45B
100
AcDbEntity
  8
0
  6
Continuous
 62
     0
370
     0
100
AcDbLine
 10
-0.0984251969
 20
0.0
 30
0.0
 11
-0.1734251969
 21
0.0
 31
0.0
  0
LINE
  5
464
330
45B
100
AcDbEntity
  8
0
  6
Continuous
 62
     0
370
     0
100
AcDbLine
 10
0.0
 20
-0.0984251969
 30
0.0
 11
0.0
 21
-0.1734251969
 31
0.0
  0
LINE
  5
465
330
45B
100
AcDbEntity
  8
0
  6
Continuous
 62
     0
370
     0
100
AcDbLine
 10
0.0984251969
 20
0.0
 30
0.0
 11
0.1734251969
 21
0.0
 31
0.0
  0
ENDBLK
  5
45D
330
45B
100
AcDbEntity
  8
0
100
AcDbBlockEnd
  0
BLOCK
  5
468
330
467
100
AcDbEntity
  8
0
100
AcDbBlockBegin
  2
SW_CENTERMARKSYMBOL_24
 70
     0
 10
0.0
 20
0.0
 30
0.0
  3
SW_CENTERMARKSYMBOL_24
  1

  0
LINE
  5
46A
330
467
100
AcDbEntity
  8
0
  6
Continuous
 62
     0
370
     0
100
AcDbLine
 10
0.0
 20
0.0
 30
0.0
 11
0.0
 21
0.0984251969
 31
0.0
  0
LINE
  5
46B
330
467
100
AcDbEntity
  8
0
  6
Continuous
 62
     0
370
     0
100
AcDbLine
 10
0.0
 20
0.0
 30
0.0
 11
-0.0984251969
 21
0.0
 31
0.0
  0
LINE
  5
46C
330
467
100
AcDbEntity
  8
0
  6
Continuous
 62
     0
370
     0
100
AcDbLine
 10
0.0
 20
0.0
 30
0.0
 11
0.0
 21
-0.0984251969
 31
0.0
  0
LINE
  5
46D
330
467
100
AcDbEntity
  8
0
  6
Continuous
 62
     0
370
     0
100
AcDbLine
 10
0.0
 20
0.0
 30
0.0
 11
0.0984251969
 21
0.0
 31
0.0
  0
LINE
  5
46E
330
467
100
AcDbEntity
  8
0
  6
Continuous
 62
     0
370
     0
100
AcDbLine
 10
0.0
 20
0.0984251969
 30
0.0
 11
0.0
 21
0.1734251969
 31
0.0
  0
LINE
  5
46F
330
467
100
AcDbEntity
  8
0
  6
Continuous
 62
     0
370
     0
100
AcDbLine
 10
-0.0984251969
 20
0.0
 30
0.0
 11
-0.1734251969
 21
0.0
 31
0.0
  0
LINE
  5
470
330
467
100
AcDbEntity
  8
0
  6
Continuous
 62
     0
370
     0
100
AcDbLine
 10
0.0
 20
-0.0984251969
 30
0.0
 11
0.0
 21
-0.1734251969
 31
0.0
  0
LINE
  5
471
330
467
100
AcDbEntity
  8
0
  6
Continuous
 62
     0
370
     0
100
AcDbLine
 10
0.0984251969
 20
0.0
 30
0.0
 11
0.1734251969
 21
0.0
 31
0.0
  0
ENDBLK
  5
469
330
467
100
AcDbEntity
  8
0
100
AcDbBlockEnd
  0
BLOCK
  5
474
330
473
100
AcDbEntity
  8
0
100
AcDbBlockBegin
  2
SW_CENTERMARKSYMBOL_25
 70
     0
 10
0.0
 20
0.0
 30
0.0
  3
SW_CENTERMARKSYMBOL_25
  1

  0
LINE
  5
476
330
473
100
AcDbEntity
  8
0
  6
Continuous
 62
     0
370
     0
100
AcDbLine
 10
0.0
 20
0.0
 30
0.0
 11
0.0
 21
0.0984251969
 31
0.0
  0
LINE
  5
477
330
473
100
AcDbEntity
  8
0
  6
Continuous
 62
     0
370
     0
100
AcDbLine
 10
0.0
 20
0.0
 30
0.0
 11
-0.0984251969
 21
0.0
 31
0.0
  0
LINE
  5
478
330
473
100
AcDbEntity
  8
0
  6
Continuous
 62
     0
370
     0
100
AcDbLine
 10
0.0
 20
0.0
 30
0.0
 11
0.0
 21
-0.0984251969
 31
0.0
  0
LINE
  5
479
330
473
100
AcDbEntity
  8
0
  6
Continuous
 62
     0
370
     0
100
AcDbLine
 10
0.0
 20
0.0
 30
0.0
 11
0.0984251969
 21
0.0
 31
0.0
  0
LINE
  5
47A
330
473
100
AcDbEntity
  8
0
  6
Continuous
 62
     0
370
     0
100
AcDbLine
 10
0.0
 20
0.0984251969
 30
0.0
 11
0.0
 21
0.1734251969
 31
0.0
  0
LINE
  5
47B
330
473
100
AcDbEntity
  8
0
  6
Continuous
 62
     0
370
     0
100
AcDbLine
 10
-0.0984251969
 20
0.0
 30
0.0
 11
-0.1734251969
 21
0.0
 31
0.0
  0
LINE
  5
47C
330
473
100
AcDbEntity
  8
0
  6
Continuous
 62
     0
370
     0
100
AcDbLine
 10
0.0
 20
-0.0984251969
 30
0.0
 11
0.0
 21
-0.1734251969
 31
0.0
  0
LINE
  5
47D
330
473
100
AcDbEntity
  8
0
  6
Continuous
 62
     0
370
     0
100
AcDbLine
 10
0.0984251969
 20
0.0
 30
0.0
 11
0.1734251969
 21
0.0
 31
0.0
  0
ENDBLK
  5
475
330
473
100
AcDbEntity
  8
0
100
AcDbBlockEnd
  0
BLOCK
  5
480
330
47F
100
AcDbEntity
  8
0
100
AcDbBlockBegin
  2
SW_CENTERMARKSYMBOL_26
 70
     0
 10
0.0
 20
0.0
 30
0.0
  3
SW_CENTERMARKSYMBOL_26
  1

  0
LINE
  5
482
330
47F
100
AcDbEntity
  8
0
  6
Continuous
 62
     0
370
     0
100
AcDbLine
 10
0.0
 20
0.0
 30
0.0
 11
0.0
 21
0.0984251969
 31
0.0
  0
LINE
  5
483
330
47F
100
AcDbEntity
  8
0
  6
Continuous
 62
     0
370
     0
100
AcDbLine
 10
0.0
 20
0.0
 30
0.0
 11
-0.0984251969
 21
0.0
 31
0.0
  0
LINE
  5
484
330
47F
100
AcDbEntity
  8
0
  6
Continuous
 62
     0
370
     0
100
AcDbLine
 10
0.0
 20
0.0
 30
0.0
 11
0.0
 21
-0.0984251969
 31
0.0
  0
LINE
  5
485
330
47F
100
AcDbEntity
  8
0
  6
Continuous
 62
     0
370
     0
100
AcDbLine
 10
0.0
 20
0.0
 30
0.0
 11
0.0984251969
 21
0.0
 31
0.0
  0
LINE
  5
486
330
47F
100
AcDbEntity
  8
0
  6
Continuous
 62
     0
370
     0
100
AcDbLine
 10
0.0
 20
0.0984251969
 30
0.0
 11
0.0
 21
0.1734251969
 31
0.0
  0
LINE
  5
487
330
47F
100
AcDbEntity
  8
0
  6
Continuous
 62
     0
370
     0
100
AcDbLine
 10
-0.0984251969
 20
0.0
 30
0.0
 11
-0.1734251969
 21
0.0
 31
0.0
  0
LINE
  5
488
330
47F
100
AcDbEntity
  8
0
  6
Continuous
 62
     0
370
     0
100
AcDbLine
 10
0.0
 20
-0.0984251969
 30
0.0
 11
0.0
 21
-0.1734251969
 31
0.0
  0
LINE
  5
489
330
47F
100
AcDbEntity
  8
0
  6
Continuous
 62
     0
370
     0
100
AcDbLine
 10
0.0984251969
 20
0.0
 30
0.0
 11
0.1734251969
 21
0.0
 31
0.0
  0
ENDBLK
  5
481
330
47F
100
AcDbEntity
  8
0
100
AcDbBlockEnd
  0
BLOCK
  5
48C
330
48B
100
AcDbEntity
  8
0
100
AcDbBlockBegin
  2
SW_CENTERMARKSYMBOL_27
 70
     0
 10
0.0
 20
0.0
 30
0.0
  3
SW_CENTERMARKSYMBOL_27
  1

  0
LINE
  5
48E
330
48B
100
AcDbEntity
  8
0
  6
Continuous
 62
     0
370
     0
100
AcDbLine
 10
0.0
 20
0.0
 30
0.0
 11
0.0
 21
0.0984251969
 31
0.0
  0
LINE
  5
48F
330
48B
100
AcDbEntity
  8
0
  6
Continuous
 62
     0
370
     0
100
AcDbLine
 10
0.0
 20
0.0
 30
0.0
 11
-0.0984251969
 21
0.0
 31
0.0
  0
LINE
  5
490
330
48B
100
AcDbEntity
  8
0
  6
Continuous
 62
     0
370
     0
100
AcDbLine
 10
0.0
 20
0.0
 30
0.0
 11
0.0
 21
-0.0984251969
 31
0.0
  0
LINE
  5
491
330
48B
100
AcDbEntity
  8
0
  6
Continuous
 62
     0
370
     0
100
AcDbLine
 10
0.0
 20
0.0
 30
0.0
 11
0.0984251969
 21
0.0
 31
0.0
  0
LINE
  5
492
330
48B
100
AcDbEntity
  8
0
  6
Continuous
 62
     0
370
     0
100
AcDbLine
 10
0.0
 20
0.0984251969
 30
0.0
 11
0.0
 21
0.1734251969
 31
0.0
  0
LINE
  5
493
330
48B
100
AcDbEntity
  8
0
  6
Continuous
 62
     0
370
     0
100
AcDbLine
 10
-0.0984251969
 20
0.0
 30
0.0
 11
-0.1734251969
 21
0.0
 31
0.0
  0
LINE
  5
494
330
48B
100
AcDbEntity
  8
0
  6
Continuous
 62
     0
370
     0
100
AcDbLine
 10
0.0
 20
-0.0984251969
 30
0.0
 11
0.0
 21
-0.1734251969
 31
0.0
  0
LINE
  5
495
330
48B
100
AcDbEntity
  8
0
  6
Continuous
 62
     0
370
     0
100
AcDbLine
 10
0.0984251969
 20
0.0
 30
0.0
 11
0.1734251969
 21
0.0
 31
0.0
  0
ENDBLK
  5
48D
330
48B
100
AcDbEntity
  8
0
100
AcDbBlockEnd
  0
BLOCK
  5
4A3
330
4A2
100
AcDbEntity
  8
0
100
AcDbBlockBegin
  2
*D84
 70
     1
 10
0.0
 20
0.0
 30
0.0
  3
*D84
  1

  0
INSERT
  5
4A5
330
4A2
100
AcDbEntity
  8
0
  6
Continuous
 62
     7
370
     0
100
AcDbBlockReference
  2
_CLOSED
 10
17.1836948408
 20
6.0538452193
 30
38.2787134848
 41
0.1041666667
 42
0.1041666667
 50
0.0
  0
INSERT
  5
4A6
330
4A2
100
AcDbEntity
  8
0
  6
Continuous
 62
     7
370
     0
100
AcDbBlockReference
  2
_CLOSED
 10
17.2636948408
 20
6.0538452193
 30
38.2787134848
 41
0.1041666667
 42
0.1041666667
 50
180.0
  0
LINE
  5
4A7
330
4A2
100
AcDbEntity
  8
0
  6
Continuous
 62
     7
370
     0
100
AcDbLine
 10
17.1836948408
 20
7.380561486
 30
0.0
 11
17.1836948408
 21
6.0144751406
 31
0.0
  0
LINE
  5
4A8
330
4A2
100
AcDbEntity
  8
0
  6
Continuous
 62
     7
370
     0
100
AcDbLine
 10
17.2636948408
 20
7.2221298029
 30
0.0
 11
17.2636948408
 21
6.0144751406
 31
0.0
  0
LINE
  5
4A9
330
4A2
100
AcDbEntity
  8
0
  6
Continuous
 62
     7
370
     0
100
AcDbLine
 10
17.1836948408
 20
6.0538452193
 30
0.0
 11
15.7700072429
 21
6.0538452193
 31
0.0
  0
LINE
  5
4AA
330
4A2
100
AcDbEntity
  8
0
  6
Continuous
 62
     7
370
     0
100
AcDbLine
 10
17.1836948408
 20
6.0538452193
 30
0.0
 11
17.2636948408
 21
6.0538452193
 31
0.0
  0
LINE
  5
4AB
330
4A2
100
AcDbEntity
  8
0
  6
Continuous
 62
     7
370
     0
100
AcDbLine
 10
17.2636948408
 20
6.0538452193
 30
0.0
 11
17.4640153537
 21
6.0538452193
 31
0.0
  0
MTEXT
  5
4AC
330
4A2
100
AcDbEntity
  8
0
  6
Continuous
 62
     7
370
     0
100
AcDbMText
 10
15.8325072429
 20
6.4298233193
 30
0.0
 40
0.2916666667
 41
0.0
 71
     1
 72
     1
  1
0.080
  7
SLDTEXTSTYLE0
 73
     1
 44
1.0
  0
ENDBLK
  5
4A4
330
4A2
100
AcDbEntity
  8
0
100
AcDbBlockEnd
  0
BLOCK
  5
4C4
330
4C3
100
AcDbEntity
  8
0
100
AcDbBlockBegin
  2
*D85
 70
     1
 10
0.0
 20
0.0
 30
0.0
  3
*D85
  1

  0
INSERT
  5
4C6
330
4C3
100
AcDbEntity
  8
0
  6
Continuous
 62
     7
370
     0
100
AcDbBlockReference
  2
_CLOSED
 10
14.0597489673
 20
8.258879776
 30
0.0548567771
 41
0.1041666667
 42
0.1041666667
 50
270.0
  0
INSERT
  5
4C7
330
4C3
100
AcDbEntity
  8
0
  6
Continuous
 62
     7
370
     0
100
AcDbBlockReference
  2
_CLOSED
 10
14.0597489673
 20
16.9547242553
 30
0.0548567771
 41
0.1041666667
 42
0.1041666667
 50
90.0
  0
LINE
  5
4C8
330
4C3
100
AcDbEntity
  8
0
  6
Continuous
 62
     7
370
     0
100
AcDbLine
 10
11.5200324213
 20
8.258879776
 30
0.0
 11
14.0991190461
 21
8.258879776
 31
0.0
  0
LINE
  5
4C9
330
4C3
100
AcDbEntity
  8
0
  6
Continuous
 62
     7
370
     0
100
AcDbLine
 10
12.5239221921
 20
16.9547242553
 30
0.0
 11
14.0991190461
 21
16.9547242553
 31
0.0
  0
LINE
  5
4CA
330
4C3
100
AcDbEntity
  8
0
  6
Continuous
 62
     7
370
     0
100
AcDbLine
 10
14.0597489673
 20
8.258879776
 30
0.0
 11
14.0597489673
 21
15.1252142351
 31
0.0
  0
LINE
  5
4CB
330
4C3
100
AcDbEntity
  8
0
  6
Continuous
 62
     7
370
     0
100
AcDbLine
 10
14.0597489673
 20
16.9547242553
 30
0.0
 11
14.0597489673
 21
15.5882766723
 31
0.0
  0
MTEXT
  5
4CC
330
4C3
100
AcDbEntity
  8
0
  6
Continuous
 62
     7
370
     0
100
AcDbMText
 10
13.5750968024
 20
15.5011923351
 30
0.0
 40
0.2916666667
 41
0.0
 71
     1
 72
     1
  1
8.696
  7
SLDTEXTSTYLE0
 73
     1
 44
1.0
  0
ENDBLK
  5
4C5
330
4C3
100
AcDbEntity
  8
0
100
AcDbBlockEnd
  0
BLOCK
  5
4CF
330
4CE
100
AcDbEntity
  8
0
100
AcDbBlockBegin
  2
*D86
 70
     1
 10
0.0
 20
0.0
 30
0.0
  3
*D86
  1

  0
INSERT
  5
4D1
330
4CE
100
AcDbEntity
  8
0
  6
Continuous
 62
     7
370
     0
100
AcDbBlockReference
  2
_CLOSED
 10
12.4845521134
 20
17.6080552433
 30
0.0548567771
 41
0.1041666667
 42
0.1041666667
 50
0.0
  0
INSERT
  5
4D2
330
4CE
100
AcDbEntity
  8
0
  6
Continuous
 62
     7
370
     0
100
AcDbBlockReference
  2
_CLOSED
 10
5.3895521134
 20
17.6080552433
 30
0.0548567771
 41
0.1041666667
 42
0.1041666667
 50
180.0
  0
LINE
  5
4D3
330
4CE
100
AcDbEntity
  8
0
  6
Continuous
 62
     7
370
     0
100
AcDbLine
 10
12.4845521134
 20
16.994094334
 30
0.0
 11
12.4845521134
 21
17.647425322
 31
0.0
  0
LINE
  5
4D4
330
4CE
100
AcDbEntity
  8
0
  6
Continuous
 62
     7
370
     0
100
AcDbLine
 10
5.3895521134
 20
16.994094334
 30
0.0
 11
5.3895521134
 21
17.647425322
 31
0.0
  0
LINE
  5
4D5
330
4CE
100
AcDbEntity
  8
0
  6
Continuous
 62
     7
370
     0
100
AcDbLine
 10
12.4845521134
 20
17.6080552433
 30
0.0
 11
5.3895521134
 21
17.6080552433
 31
0.0
  0
MTEXT
  5
4D6
330
4CE
100
AcDbEntity
  8
0
  6
Continuous
 62
     7
370
     0
100
AcDbMText
 10
8.8258373169
 20
17.9840333432
 30
0.0
 40
0.2916666667
 41
0.0
 71
     1
 72
     1
  1
7.095
  7
SLDTEXTSTYLE0
 73
     1
 44
1.0
  0
ENDBLK
  5
4D0
330
4CE
100
AcDbEntity
  8
0
100
AcDbBlockEnd
  0
BLOCK
  5
4D9
330
4D8
100
AcDbEntity
  8
0
100
AcDbBlockBegin
  2
*D87
 70
     1
 10
0.0
 20
0.0
 30
0.0
  3
*D87
  1

  0
INSERT
  5
4DB
330
4D8
100
AcDbEntity
  8
0
  6
Continuous
 62
     7
370
     0
100
AcDbBlockReference
  2
_CLOSED
 10
6.4183462367
 20
8.3813880764
 30
0.0548567771
 41
0.1041666667
 42
0.1041666667
 50
60.060857236
  0
LINE
  5
4DC
330
4D8
100
AcDbEntity
  8
0
  6
Continuous
 62
     7
370
     0
100
AcDbLine
 10
6.4183462367
 20
8.3813880764
 30
0.0
 11
5.669919777
 21
7.0818897686
 31
0.0
  0
LINE
  5
4DD
330
4D8
100
AcDbEntity
  8
0
  6
Continuous
 62
     7
370
     0
100
AcDbLine
 10
6.4932082159
 20
8.5113714756
 30
0.0
 11
6.4183462367
 21
8.3813880764
 31
0.0
  0
LINE
  5
4DE
330
4D8
100
AcDbEntity
  8
0
  6
Continuous
 62
     7
370
     0
100
AcDbLine
 10
5.669919777
 20
7.0818897686
 30
0.0
 11
4.0728835267
 21
7.0818897686
 31
0.0
  0
MTEXT
  5
4DF
330
4D8
100
AcDbEntity
  8
0
  6
Continuous
 62
     7
370
     0
100
AcDbMText
 10
4.1353835267
 20
7.4578678593
 30
0.0
 40
0.2916666667
 41
0.0
 71
     1
 72
     1
  1
%%c
  7
SLDTEXTSTYLE0
 73
     1
 44
1.0
  0
MTEXT
  5
4E0
330
4D8
100
AcDbEntity
  8
0
  6
Continuous
 62
     7
370
     0
100
AcDbMText
 10
4.5756154471
 20
7.4578678685
 30
0.0
 40
0.2916666667
 41
0.0
 71
     1
 72
     1
  1
0.150
  7
SLDTEXTSTYLE0
 73
     1
 44
1.0
  0
ENDBLK
  5
4DA
330
4D8
100
AcDbEntity
  8
0
100
AcDbBlockEnd
  0
BLOCK
  5
4E2
330
4E1
100
AcDbEntity
  8
0
100
AcDbBlockBegin
  2
SW_NOTE_6
 70
     0
 10
0.0
 20
0.0
 30
0.0
  3
SW_NOTE_6
  1

  0
MTEXT
  5
4E4
330
4E1
100
AcDbEntity
  8
0
  6
Continuous
 62
     0
370
     0
100
AcDbMText
 10
0.0
 20
0.3759780908
 30
0.0
 40
0.2916666667
 41
0.0
 71
     1
 72
     1
  1
STANDARD
  7
SLDTEXTSTYLE0
 73
     1
 44
1.0
  0
MTEXT
  5
4E5
330
4E1
100
AcDbEntity
  8
0
  6
Continuous
 62
     0
370
     0
100
AcDbMText
 10
-0.7167436534
 20
-0.0129107934
 30
0.0
 40
0.2916666667
 41
0.0
 71
     1
 72
     1
  1
LOWER-PNL-INSERT
  7
SLDTEXTSTYLE0
 73
     1
 44
1.0
  0
ENDBLK
  5
4E3
330
4E1
100
AcDbEntity
  8
0
100
AcDbBlockEnd
  0
BLOCK
  5
4E8
330
4E7
100
AcDbEntity
  8
0
100
AcDbBlockBegin
  2
SW_CENTERMARKSYMBOL_28
 70
     0
 10
0.0
 20
0.0
 30
0.0
  3
SW_CENTERMARKSYMBOL_28
  1

  0
LINE
  5
4EA
330
4E7
100
AcDbEntity
  8
0
  6
Continuous
 62
     0
370
     0
100
AcDbLine
 10
0.0
 20
0.0
 30
0.0
 11
0.0
 21
0.0984251969
 31
0.0
  0
LINE
  5
4EB
330
4E7
100
AcDbEntity
  8
0
  6
Continuous
 62
     0
370
     0
100
AcDbLine
 10
0.0
 20
0.0
 30
0.0
 11
-0.0984251969
 21
0.0
 31
0.0
  0
LINE
  5
4EC
330
4E7
100
AcDbEntity
  8
0
  6
Continuous
 62
     0
370
     0
100
AcDbLine
 10
0.0
 20
0.0
 30
0.0
 11
0.0
 21
-0.0984251969
 31
0.0
  0
LINE
  5
4ED
330
4E7
100
AcDbEntity
  8
0
  6
Continuous
 62
     0
370
     0
100
AcDbLine
 10
0.0
 20
0.0
 30
0.0
 11
0.0984251969
 21
0.0
 31
0.0
  0
LINE
  5
4EE
330
4E7
100
AcDbEntity
  8
0
  6
Continuous
 62
     0
370
     0
100
AcDbLine
 10
0.0
 20
0.0984251969
 30
0.0
 11
0.0
 21
0.1734251969
 31
0.0
  0
LINE
  5
4EF
330
4E7
100
AcDbEntity
  8
0
  6
Continuous
 62
     0
370
     0
100
AcDbLine
 10
-0.0984251969
 20
0.0
 30
0.0
 11
-0.1734251969
 21
0.0
 31
0.0
  0
LINE
  5
4F0
330
4E7
100
AcDbEntity
  8
0
  6
Continuous
 62
     0
370
     0
100
AcDbLine
 10
0.0
 20
-0.0984251969
 30
0.0
 11
0.0
 21
-0.1734251969
 31
0.0
  0
LINE
  5
4F1
330
4E7
100
AcDbEntity
  8
0
  6
Continuous
 62
     0
370
     0
100
AcDbLine
 10
0.0984251969
 20
0.0
 30
0.0
 11
0.1734251969
 21
0.0
 31
0.0
  0
ENDBLK
  5
4E9
330
4E7
100
AcDbEntity
  8
0
100
AcDbBlockEnd
  0
BLOCK
  5
4F4
330
4F3
100
AcDbEntity
  8
0
100
AcDbBlockBegin
  2
SW_CENTERMARKSYMBOL_29
 70
     0
 10
0.0
 20
0.0
 30
0.0
  3
SW_CENTERMARKSYMBOL_29
  1

  0
LINE
  5
4F6
330
4F3
100
AcDbEntity
  8
0
  6
Continuous
 62
     0
370
     0
100
AcDbLine
 10
0.0
 20
0.0
 30
0.0
 11
0.0
 21
0.0984251969
 31
0.0
  0
LINE
  5
4F7
330
4F3
100
AcDbEntity
  8
0
  6
Continuous
 62
     0
370
     0
100
AcDbLine
 10
0.0
 20
0.0
 30
0.0
 11
-0.0984251969
 21
0.0
 31
0.0
  0
LINE
  5
4F8
330
4F3
100
AcDbEntity
  8
0
  6
Continuous
 62
     0
370
     0
100
AcDbLine
 10
0.0
 20
0.0
 30
0.0
 11
0.0
 21
-0.0984251969
 31
0.0
  0
LINE
  5
4F9
330
4F3
100
AcDbEntity
  8
0
  6
Continuous
 62
     0
370
     0
100
AcDbLine
 10
0.0
 20
0.0
 30
0.0
 11
0.0984251969
 21
0.0
 31
0.0
  0
LINE
  5
4FA
330
4F3
100
AcDbEntity
  8
0
  6
Continuous
 62
     0
370
     0
100
AcDbLine
 10
0.0
 20
0.0984251969
 30
0.0
 11
0.0
 21
0.1734251969
 31
0.0
  0
LINE
  5
4FB
330
4F3
100
AcDbEntity
  8
0
  6
Continuous
 62
     0
370
     0
100
AcDbLine
 10
-0.0984251969
 20
0.0
 30
0.0
 11
-0.1734251969
 21
0.0
 31
0.0
  0
LINE
  5
4FC
330
4F3
100
AcDbEntity
  8
0
  6
Continuous
 62
     0
370
     0
100
AcDbLine
 10
0.0
 20
-0.0984251969
 30
0.0
 11
0.0
 21
-0.1734251969
 31
0.0
  0
LINE
  5
4FD
330
4F3
100
AcDbEntity
  8
0
  6
Continuous
 62
     0
370
     0
100
AcDbLine
 10
0.0984251969
 20
0.0
 30
0.0
 11
0.1734251969
 21
0.0
 31
0.0
  0
ENDBLK
  5
4F5
330
4F3
100
AcDbEntity
  8
0
100
AcDbBlockEnd
  0
BLOCK
  5
500
330
4FF
100
AcDbEntity
  8
0
100
AcDbBlockBegin
  2
SW_CENTERMARKSYMBOL_30
 70
     0
 10
0.0
 20
0.0
 30
0.0
  3
SW_CENTERMARKSYMBOL_30
  1

  0
LINE
  5
502
330
4FF
100
AcDbEntity
  8
0
  6
Continuous
 62
     0
370
     0
100
AcDbLine
 10
0.0
 20
0.0
 30
0.0
 11
0.0
 21
0.0984251969
 31
0.0
  0
LINE
  5
503
330
4FF
100
AcDbEntity
  8
0
  6
Continuous
 62
     0
370
     0
100
AcDbLine
 10
0.0
 20
0.0
 30
0.0
 11
-0.0984251969
 21
0.0
 31
0.0
  0
LINE
  5
504
330
4FF
100
AcDbEntity
  8
0
  6
Continuous
 62
     0
370
     0
100
AcDbLine
 10
0.0
 20
0.0
 30
0.0
 11
0.0
 21
-0.0984251969
 31
0.0
  0
LINE
  5
505
330
4FF
100
AcDbEntity
  8
0
  6
Continuous
 62
     0
370
     0
100
AcDbLine
 10
0.0
 20
0.0
 30
0.0
 11
0.0984251969
 21
0.0
 31
0.0
  0
LINE
  5
506
330
4FF
100
AcDbEntity
  8
0
  6
Continuous
 62
     0
370
     0
100
AcDbLine
 10
0.0
 20
0.0984251969
 30
0.0
 11
0.0
 21
0.1734251969
 31
0.0
  0
LINE
  5
507
330
4FF
100
AcDbEntity
  8
0
  6
Continuous
 62
     0
370
     0
100
AcDbLine
 10
-0.0984251969
 20
0.0
 30
0.0
 11
-0.1734251969
 21
0.0
 31
0.0
  0
LINE
  5
508
330
4FF
100
AcDbEntity
  8
0
  6
Continuous
 62
     0
370
     0
100
AcDbLine
 10
0.0
 20
-0.0984251969
 30
0.0
 11
0.0
 21
-0.1734251969
 31
0.0
  0
LINE
  5
509
330
4FF
100
AcDbEntity
  8
0
  6
Continuous
 62
     0
370
     0
100
AcDbLine
 10
0.0984251969
 20
0.0
 30
0.0
 11
0.1734251969
 21
0.0
 31
0.0
  0
ENDBLK
  5
501
330
4FF
100
AcDbEntity
  8
0
100
AcDbBlockEnd
  0
BLOCK
  5
50C
330
50B
100
AcDbEntity
  8
0
100
AcDbBlockBegin
  2
SW_CENTERMARKSYMBOL_31
 70
     0
 10
0.0
 20
0.0
 30
0.0
  3
SW_CENTERMARKSYMBOL_31
  1

  0
LINE
  5
50E
330
50B
100
AcDbEntity
  8
0
  6
Continuous
 62
     0
370
     0
100
AcDbLine
 10
0.0
 20
0.0
 30
0.0
 11
0.0
 21
0.0984251969
 31
0.0
  0
LINE
  5
50F
330
50B
100
AcDbEntity
  8
0
  6
Continuous
 62
     0
370
     0
100
AcDbLine
 10
0.0
 20
0.0
 30
0.0
 11
-0.0984251969
 21
0.0
 31
0.0
  0
LINE
  5
510
330
50B
100
AcDbEntity
  8
0
  6
Continuous
 62
     0
370
     0
100
AcDbLine
 10
0.0
 20
0.0
 30
0.0
 11
0.0
 21
-0.0984251969
 31
0.0
  0
LINE
  5
511
330
50B
100
AcDbEntity
  8
0
  6
Continuous
 62
     0
370
     0
100
AcDbLine
 10
0.0
 20
0.0
 30
0.0
 11
0.0984251969
 21
0.0
 31
0.0
  0
LINE
  5
512
330
50B
100
AcDbEntity
  8
0
  6
Continuous
 62
     0
370
     0
100
AcDbLine
 10
0.0
 20
0.0984251969
 30
0.0
 11
0.0
 21
0.1734251968
 31
0.0
  0
LINE
  5
513
330
50B
100
AcDbEntity
  8
0
  6
Continuous
 62
     0
370
     0
100
AcDbLine
 10
-0.0984251969
 20
0.0
 30
0.0
 11
-0.1734251968
 21
0.0
 31
0.0
  0
LINE
  5
514
330
50B
100
AcDbEntity
  8
0
  6
Continuous
 62
     0
370
     0
100
AcDbLine
 10
0.0
 20
-0.0984251969
 30
0.0
 11
0.0
 21
-0.1734251968
 31
0.0
  0
LINE
  5
515
330
50B
100
AcDbEntity
  8
0
  6
Continuous
 62
     0
370
     0
100
AcDbLine
 10
0.0984251969
 20
0.0
 30
0.0
 11
0.1734251968
 21
0.0
 31
0.0
  0
ENDBLK
  5
50D
330
50B
100
AcDbEntity
  8
0
100
AcDbBlockEnd
  0
BLOCK
  5
518
330
517
100
AcDbEntity
  8
0
100
AcDbBlockBegin
  2
SW_CENTERMARKSYMBOL_32
 70
     0
 10
0.0
 20
0.0
 30
0.0
  3
SW_CENTERMARKSYMBOL_32
  1

  0
LINE
  5
51A
330
517
100
AcDbEntity
  8
0
  6
Continuous
 62
     0
370
     0
100
AcDbLine
 10
0.0
 20
0.0
 30
0.0
 11
0.0
 21
0.0984251969
 31
0.0
  0
LINE
  5
51B
330
517
100
AcDbEntity
  8
0
  6
Continuous
 62
     0
370
     0
100
AcDbLine
 10
0.0
 20
0.0
 30
0.0
 11
-0.0984251969
 21
0.0
 31
0.0
  0
LINE
  5
51C
330
517
100
AcDbEntity
  8
0
  6
Continuous
 62
     0
370
     0
100
AcDbLine
 10
0.0
 20
0.0
 30
0.0
 11
0.0
 21
-0.0984251969
 31
0.0
  0
LINE
  5
51D
330
517
100
AcDbEntity
  8
0
  6
Continuous
 62
     0
370
     0
100
AcDbLine
 10
0.0
 20
0.0
 30
0.0
 11
0.0984251969
 21
0.0
 31
0.0
  0
LINE
  5
51E
330
517
100
AcDbEntity
  8
0
  6
Continuous
 62
     0
370
     0
100
AcDbLine
 10
0.0
 20
0.0984251969
 30
0.0
 11
0.0
 21
0.1734251968
 31
0.0
  0
LINE
  5
51F
330
517
100
AcDbEntity
  8
0
  6
Continuous
 62
     0
370
     0
100
AcDbLine
 10
-0.0984251969
 20
0.0
 30
0.0
 11
-0.1734251968
 21
0.0
 31
0.0
  0
LINE
  5
520
330
517
100
AcDbEntity
  8
0
  6
Continuous
 62
     0
370
     0
100
AcDbLine
 10
0.0
 20
-0.0984251969
 30
0.0
 11
0.0
 21
-0.1734251968
 31
0.0
  0
LINE
  5
521
330
517
100
AcDbEntity
  8
0
  6
Continuous
 62
     0
370
     0
100
AcDbLine
 10
0.0984251969
 20
0.0
 30
0.0
 11
0.1734251968
 21
0.0
 31
0.0
  0
ENDBLK
  5
519
330
517
100
AcDbEntity
  8
0
100
AcDbBlockEnd
  0
BLOCK
  5
524
330
523
100
AcDbEntity
  8
0
100
AcDbBlockBegin
  2
SW_CENTERMARKSYMBOL_33
 70
     0
 10
0.0
 20
0.0
 30
0.0
  3
SW_CENTERMARKSYMBOL_33
  1

  0
LINE
  5
526
330
523
100
AcDbEntity
  8
0
  6
Continuous
 62
     0
370
     0
100
AcDbLine
 10
0.0
 20
0.0
 30
0.0
 11
0.0
 21
0.0984251969
 31
0.0
  0
LINE
  5
527
330
523
100
AcDbEntity
  8
0
  6
Continuous
 62
     0
370
     0
100
AcDbLine
 10
0.0
 20
0.0
 30
0.0
 11
-0.0984251969
 21
0.0
 31
0.0
  0
LINE
  5
528
330
523
100
AcDbEntity
  8
0
  6
Continuous
 62
     0
370
     0
100
AcDbLine
 10
0.0
 20
0.0
 30
0.0
 11
0.0
 21
-0.0984251969
 31
0.0
  0
LINE
  5
529
330
523
100
AcDbEntity
  8
0
  6
Continuous
 62
     0
370
     0
100
AcDbLine
 10
0.0
 20
0.0
 30
0.0
 11
0.0984251969
 21
0.0
 31
0.0
  0
LINE
  5
52A
330
523
100
AcDbEntity
  8
0
  6
Continuous
 62
     0
370
     0
100
AcDbLine
 10
0.0
 20
0.0984251969
 30
0.0
 11
0.0
 21
0.1734251967
 31
0.0
  0
LINE
  5
52B
330
523
100
AcDbEntity
  8
0
  6
Continuous
 62
     0
370
     0
100
AcDbLine
 10
-0.0984251969
 20
0.0
 30
0.0
 11
-0.1734251967
 21
0.0
 31
0.0
  0
LINE
  5
52C
330
523
100
AcDbEntity
  8
0
  6
Continuous
 62
     0
370
     0
100
AcDbLine
 10
0.0
 20
-0.0984251969
 30
0.0
 11
0.0
 21
-0.1734251967
 31
0.0
  0
LINE
  5
52D
330
523
100
AcDbEntity
  8
0
  6
Continuous
 62
     0
370
     0
100
AcDbLine
 10
0.0984251969
 20
0.0
 30
0.0
 11
0.1734251967
 21
0.0
 31
0.0
  0
ENDBLK
  5
525
330
523
100
AcDbEntity
  8
0
100
AcDbBlockEnd
  0
BLOCK
  5
530
330
52F
100
AcDbEntity
  8
0
100
AcDbBlockBegin
  2
SW_CENTERMARKSYMBOL_34
 70
     0
 10
0.0
 20
0.0
 30
0.0
  3
SW_CENTERMARKSYMBOL_34
  1

  0
LINE
  5
532
330
52F
100
AcDbEntity
  8
0
  6
Continuous
 62
     0
370
     0
100
AcDbLine
 10
0.0
 20
0.0
 30
0.0
 11
0.0
 21
0.0984251969
 31
0.0
  0
LINE
  5
533
330
52F
100
AcDbEntity
  8
0
  6
Continuous
 62
     0
370
     0
100
AcDbLine
 10
0.0
 20
0.0
 30
0.0
 11
-0.0984251969
 21
0.0
 31
0.0
  0
LINE
  5
534
330
52F
100
AcDbEntity
  8
0
  6
Continuous
 62
     0
370
     0
100
AcDbLine
 10
0.0
 20
0.0
 30
0.0
 11
0.0
 21
-0.0984251969
 31
0.0
  0
LINE
  5
535
330
52F
100
AcDbEntity
  8
0
  6
Continuous
 62
     0
370
     0
100
AcDbLine
 10
0.0
 20
0.0
 30
0.0
 11
0.0984251969
 21
0.0
 31
0.0
  0
LINE
  5
536
330
52F
100
AcDbEntity
  8
0
  6
Continuous
 62
     0
370
     0
100
AcDbLine
 10
0.0
 20
0.0984251969
 30
0.0
 11
0.0
 21
0.1734251967
 31
0.0
  0
LINE
  5
537
330
52F
100
AcDbEntity
  8
0
  6
Continuous
 62
     0
370
     0
100
AcDbLine
 10
-0.0984251969
 20
0.0
 30
0.0
 11
-0.1734251967
 21
0.0
 31
0.0
  0
LINE
  5
538
330
52F
100
AcDbEntity
  8
0
  6
Continuous
 62
     0
370
     0
100
AcDbLine
 10
0.0
 20
-0.0984251969
 30
0.0
 11
0.0
 21
-0.1734251967
 31
0.0
  0
LINE
  5
539
330
52F
100
AcDbEntity
  8
0
  6
Continuous
 62
     0
370
     0
100
AcDbLine
 10
0.0984251969
 20
0.0
 30
0.0
 11
0.1734251967
 21
0.0
 31
0.0
  0
ENDBLK
  5
531
330
52F
100
AcDbEntity
  8
0
100
AcDbBlockEnd
  0
BLOCK
  5
53C
330
53B
100
AcDbEntity
  8
0
100
AcDbBlockBegin
  2
SW_CENTERMARKSYMBOL_35
 70
     0
 10
0.0
 20
0.0
 30
0.0
  3
SW_CENTERMARKSYMBOL_35
  1

  0
LINE
  5
53E
330
53B
100
AcDbEntity
  8
0
  6
Continuous
 62
     0
370
     0
100
AcDbLine
 10
0.0
 20
0.0
 30
0.0
 11
0.0
 21
0.0984251969
 31
0.0
  0
LINE
  5
53F
330
53B
100
AcDbEntity
  8
0
  6
Continuous
 62
     0
370
     0
100
AcDbLine
 10
0.0
 20
0.0
 30
0.0
 11
-0.0984251969
 21
0.0
 31
0.0
  0
LINE
  5
540
330
53B
100
AcDbEntity
  8
0
  6
Continuous
 62
     0
370
     0
100
AcDbLine
 10
0.0
 20
0.0
 30
0.0
 11
0.0
 21
-0.0984251969
 31
0.0
  0
LINE
  5
541
330
53B
100
AcDbEntity
  8
0
  6
Continuous
 62
     0
370
     0
100
AcDbLine
 10
0.0
 20
0.0
 30
0.0
 11
0.0984251969
 21
0.0
 31
0.0
  0
LINE
  5
542
330
53B
100
AcDbEntity
  8
0
  6
Continuous
 62
     0
370
     0
100
AcDbLine
 10
0.0
 20
0.0984251969
 30
0.0
 11
0.0
 21
0.1734251969
 31
0.0
  0
LINE
  5
543
330
53B
100
AcDbEntity
  8
0
  6
Continuous
 62
     0
370
     0
100
AcDbLine
 10
-0.0984251969
 20
0.0
 30
0.0
 11
-0.1734251969
 21
0.0
 31
0.0
  0
LINE
  5
544
330
53B
100
AcDbEntity
  8
0
  6
Continuous
 62
     0
370
     0
100
AcDbLine
 10
0.0
 20
-0.0984251969
 30
0.0
 11
0.0
 21
-0.1734251969
 31
0.0
  0
LINE
  5
545
330
53B
100
AcDbEntity
  8
0
  6
Continuous
 62
     0
370
     0
100
AcDbLine
 10
0.0984251969
 20
0.0
 30
0.0
 11
0.1734251969
 21
0.0
 31
0.0
  0
ENDBLK
  5
53D
330
53B
100
AcDbEntity
  8
0
100
AcDbBlockEnd
  0
BLOCK
  5
548
330
547
100
AcDbEntity
  8
0
100
AcDbBlockBegin
  2
SW_CENTERMARKSYMBOL_36
 70
     0
 10
0.0
 20
0.0
 30
0.0
  3
SW_CENTERMARKSYMBOL_36
  1

  0
LINE
  5
54A
330
547
100
AcDbEntity
  8
0
  6
Continuous
 62
     0
370
     0
100
AcDbLine
 10
0.0
 20
0.0
 30
0.0
 11
0.0
 21
0.0984251969
 31
0.0
  0
LINE
  5
54B
330
547
100
AcDbEntity
  8
0
  6
Continuous
 62
     0
370
     0
100
AcDbLine
 10
0.0
 20
0.0
 30
0.0
 11
-0.0984251969
 21
0.0
 31
0.0
  0
LINE
  5
54C
330
547
100
AcDbEntity
  8
0
  6
Continuous
 62
     0
370
     0
100
AcDbLine
 10
0.0
 20
0.0
 30
0.0
 11
0.0
 21
-0.0984251969
 31
0.0
  0
LINE
  5
54D
330
547
100
AcDbEntity
  8
0
  6
Continuous
 62
     0
370
     0
100
AcDbLine
 10
0.0
 20
0.0
 30
0.0
 11
0.0984251969
 21
0.0
 31
0.0
  0
LINE
  5
54E
330
547
100
AcDbEntity
  8
0
  6
Continuous
 62
     0
370
     0
100
AcDbLine
 10
0.0
 20
0.0984251969
 30
0.0
 11
0.0
 21
0.1734251968
 31
0.0
  0
LINE
  5
54F
330
547
100
AcDbEntity
  8
0
  6
Continuous
 62
     0
370
     0
100
AcDbLine
 10
-0.0984251969
 20
0.0
 30
0.0
 11
-0.1734251968
 21
0.0
 31
0.0
  0
LINE
  5
550
330
547
100
AcDbEntity
  8
0
  6
Continuous
 62
     0
370
     0
100
AcDbLine
 10
0.0
 20
-0.0984251969
 30
0.0
 11
0.0
 21
-0.1734251968
 31
0.0
  0
LINE
  5
551
330
547
100
AcDbEntity
  8
0
  6
Continuous
 62
     0
370
     0
100
AcDbLine
 10
0.0984251969
 20
0.0
 30
0.0
 11
0.1734251968
 21
0.0
 31
0.0
  0
ENDBLK
  5
549
330
547
100
AcDbEntity
  8
0
100
AcDbBlockEnd
  0
BLOCK
  5
554
330
553
100
AcDbEntity
  8
0
100
AcDbBlockBegin
  2
SW_CENTERMARKSYMBOL_37
 70
     0
 10
0.0
 20
0.0
 30
0.0
  3
SW_CENTERMARKSYMBOL_37
  1

  0
LINE
  5
556
330
553
100
AcDbEntity
  8
0
  6
Continuous
 62
     0
370
     0
100
AcDbLine
 10
0.0
 20
0.0
 30
0.0
 11
0.0
 21
0.0984251969
 31
0.0
  0
LINE
  5
557
330
553
100
AcDbEntity
  8
0
  6
Continuous
 62
     0
370
     0
100
AcDbLine
 10
0.0
 20
0.0
 30
0.0
 11
-0.0984251969
 21
0.0
 31
0.0
  0
LINE
  5
558
330
553
100
AcDbEntity
  8
0
  6
Continuous
 62
     0
370
     0
100
AcDbLine
 10
0.0
 20
0.0
 30
0.0
 11
0.0
 21
-0.0984251969
 31
0.0
  0
LINE
  5
559
330
553
100
AcDbEntity
  8
0
  6
Continuous
 62
     0
370
     0
100
AcDbLine
 10
0.0
 20
0.0
 30
0.0
 11
0.0984251969
 21
0.0
 31
0.0
  0
LINE
  5
55A
330
553
100
AcDbEntity
  8
0
  6
Continuous
 62
     0
370
     0
100
AcDbLine
 10
0.0
 20
0.0984251969
 30
0.0
 11
0.0
 21
0.1734251969
 31
0.0
  0
LINE
  5
55B
330
553
100
AcDbEntity
  8
0
  6
Continuous
 62
     0
370
     0
100
AcDbLine
 10
-0.0984251969
 20
0.0
 30
0.0
 11
-0.1734251969
 21
0.0
 31
0.0
  0
LINE
  5
55C
330
553
100
AcDbEntity
  8
0
  6
Continuous
 62
     0
370
     0
100
AcDbLine
 10
0.0
 20
-0.0984251969
 30
0.0
 11
0.0
 21
-0.1734251969
 31
0.0
  0
LINE
  5
55D
330
553
100
AcDbEntity
  8
0
  6
Continuous
 62
     0
370
     0
100
AcDbLine
 10
0.0984251969
 20
0.0
 30
0.0
 11
0.1734251969
 21
0.0
 31
0.0
  0
ENDBLK
  5
555
330
553
100
AcDbEntity
  8
0
100
AcDbBlockEnd
  0
BLOCK
  5
56E
330
56D
100
AcDbEntity
  8
0
100
AcDbBlockBegin
  2
*D99
 70
     1
 10
0.0
 20
0.0
 30
0.0
  3
*D99
  1

  0
INSERT
  5
570
330
56D
100
AcDbEntity
  8
0
  6
Continuous
 62
     7
370
     0
100
AcDbBlockReference
  2
_CLOSED
 10
3.5317154619
 20
7.6214712099
 30
21.4912486504
 41
0.1041666667
 42
0.1041666667
 50
180.0
  0
INSERT
  5
571
330
56D
100
AcDbEntity
  8
0
  6
Continuous
 62
     7
370
     0
100
AcDbBlockReference
  2
_CLOSED
 10
3.4517154619
 20
7.6214712099
 30
21.4912486504
 41
0.1041666667
 42
0.1041666667
 50
0.0
  0
LINE
  5
572
330
56D
100
AcDbEntity
  8
0
  6
Continuous
 62
     7
370
     0
100
AcDbLine
 10
3.5317154619
 20
8.2195096973
 30
0.0
 11
3.5317154619
 21
7.5821011311
 31
0.0
  0
LINE
  5
573
330
56D
100
AcDbEntity
  8
0
  6
Continuous
 62
     7
370
     0
100
AcDbLine
 10
3.4517154619
 20
8.2195096973
 30
0.0
 11
3.4517154619
 21
7.5821011311
 31
0.0
  0
LINE
  5
574
330
56D
100
AcDbEntity
  8
0
  6
Continuous
 62
     7
370
     0
100
AcDbLine
 10
3.5317154619
 20
7.6214712099
 30
0.0
 11
3.7320359747
 21
7.6214712099
 31
0.0
  0
LINE
  5
575
330
56D
100
AcDbEntity
  8
0
  6
Continuous
 62
     7
370
     0
100
AcDbLine
 10
3.5317154619
 20
7.6214712099
 30
0.0
 11
3.4517154619
 21
7.6214712099
 31
0.0
  0
LINE
  5
576
330
56D
100
AcDbEntity
  8
0
  6
Continuous
 62
     7
370
     0
100
AcDbLine
 10
3.4517154619
 20
7.6214712099
 30
0.0
 11
1.1910281564
 21
7.6214712099
 31
0.0
  0
MTEXT
  5
577
330
56D
100
AcDbEntity
  8
0
  6
Continuous
 62
     7
370
     0
100
AcDbMText
 10
1.2535281564
 20
7.9974493098
 30
0.0
 40
0.2916666667
 41
0.0
 71
     1
 72
     1
  1
0.080
  7
SLDTEXTSTYLE0
 73
     1
 44
1.0
  0
ENDBLK
  5
56F
330
56D
100
AcDbEntity
  8
0
100
AcDbBlockEnd
  0
ENDSEC
  0
SECTION
  2
ENTITIES
  0
LINE
  5
45
330
1F
100
AcDbEntity
  8
0
  6
Continuous
 62
     7
370
     0
100
AcDbLine
 10
0.5228798587
 20
33.4106007067
 30
0.0
 11
43.5228798587
 21
33.4106007067
 31
0.0
  0
LINE
  5
46
330
1F
100
AcDbEntity
  8
0
  6
Continuous
 62
     7
370
     0
100
AcDbLine
 10
0.5228798587
 20
33.4106007067
 30
0.0
 11
0.5228798587
 21
0.4106007067
 31
0.0
  0
LINE
  5
47
330
1F
100
AcDbEntity
  8
0
  6
Continuous
 62
     7
370
     0
100
AcDbLine
 10
43.5228798587
 20
0.4106007067
 30
0.0
 11
0.5228798587
 21
0.4106007067
 31
0.0
  0
LINE
  5
48
330
1F
100
AcDbEntity
  8
0
  6
Continuous
 62
     7
370
     0
100
AcDbLine
 10
43.5228798587
 20
0.4106007067
 30
0.0
 11
43.5228798587
 21
33.4106007067
 31
0.0
  0
LINE
  5
49
330
1F
100
AcDbEntity
  8
0
  6
Continuous
 62
     7
370
     0
100
AcDbLine
 10
32.7728798587
 20
0.4106007067
 30
0.0
 11
32.7728798587
 21
0.3258015009
 31
0.0
  0
LINE
  5
4A
330
1F
100
AcDbEntity
  8
0
  6
Continuous
 62
     7
370
     0
100
AcDbLine
 10
27.3978798587
 20
0.4106007067
 30
0.0
 11
27.3978798587
 21
0.3258015009
 31
0.0
  0
LINE
  5
4B
330
1F
100
AcDbEntity
  8
0
  6
Continuous
 62
     7
370
     0
100
AcDbLine
 10
16.6478798587
 20
0.4106007067
 30
0.0
 11
16.6478798587
 21
0.3258015009
 31
0.0
  0
LINE
  5
4C
330
1F
100
AcDbEntity
  8
0
  6
Continuous
 62
     7
370
     0
100
AcDbLine
 10
11.2728798587
 20
0.4106007067
 30
0.0
 11
11.2728798587
 21
0.3258015009
 31
0.0
  0
LINE
  5
4D
330
1F
100
AcDbEntity
  8
0
  6
Continuous
 62
     7
370
     0
100
AcDbLine
 10
5.8978798587
 20
0.4106007067
 30
0.0
 11
5.8978798587
 21
0.3258015009
 31
0.0
  0
LINE
  5
4E
330
1F
100
AcDbEntity
  8
0
  6
Continuous
 62
     7
370
     0
100
AcDbLine
 10
33.2228798587
 20
1.1274714877
 30
0.0
 11
33.2228798587
 21
0.4128891461
 31
0.0
  0
LINE
  5
4F
330
1F
100
AcDbEntity
  8
0
  6
Continuous
 62
     7
370
     0
100
AcDbLine
 10
37.6911369874
 20
0.4131235219
 30
0.0
 11
37.6911369874
 21
1.1274714877
 31
0.0
  0
LINE
  5
50
330
1F
100
AcDbEntity
  8
0
  6
Continuous
 62
     7
370
     0
100
AcDbLine
 10
39.07258811
 20
1.6988394361
 30
0.0
 11
43.5228798587
 21
1.6988394361
 31
0.0
  0
LINE
  5
51
330
1F
100
AcDbEntity
  8
0
  6
Continuous
 62
     7
370
     0
100
AcDbLine
 10
39.07258811
 20
1.6988394361
 30
0.0
 11
39.07258811
 21
0.4131235219
 31
0.0
  0
LINE
  5
52
330
1F
100
AcDbEntity
  8
0
  6
Continuous
 62
     7
370
     0
100
AcDbLine
 10
40.7601607825
 20
1.6988394361
 30
0.0
 11
40.7601607825
 21
0.4131235219
 31
0.0
  0
LINE
  5
53
330
1F
100
AcDbEntity
  8
0
  6
Continuous
 62
     7
370
     0
100
AcDbLine
 10
40.7601607825
 20
0.6260093612
 30
0.0
 11
43.5228798587
 21
0.6260093612
 31
0.0
  0
LINE
  5
54
330
1F
100
AcDbEntity
  8
0
  6
Continuous
 62
     7
370
     0
100
AcDbLine
 10
40.7601607825
 20
1.1073138652
 30
0.0
 11
43.5228798587
 21
1.1073138652
 31
0.0
  0
LINE
  5
55
330
1F
100
AcDbEntity
  8
0
  6
Continuous
 62
     7
370
     0
100
AcDbLine
 10
41.1597046106
 20
1.1073138652
 30
0.0
 11
41.1597046106
 21
0.6260093612
 31
0.0
  0
LINE
  5
56
330
1F
100
AcDbEntity
  8
0
  6
Continuous
 62
     7
370
     0
100
AcDbLine
 10
41.5872963762
 20
0.6260093612
 30
0.0
 11
41.5872963762
 21
0.4131235219
 31
0.0
  0
LINE
  5
57
330
1F
100
AcDbEntity
  8
0
  6
Continuous
 62
     7
370
     0
100
AcDbLine
 10
38.1728798587
 20
0.4106007067
 30
0.0
 11
38.1728798587
 21
0.3258015009
 31
0.0
  0
LINE
  5
58
330
1F
100
AcDbEntity
  8
0
  6
Continuous
 62
     7
370
     0
100
AcDbLine
 10
43.6475894321
 20
9.5760660757
 30
0.0
 11
43.9373874447
 21
9.5760660757
 31
0.0
  0
LINE
  5
59
330
1F
100
AcDbEntity
  8
0
  6
Continuous
 62
     7
370
     0
100
AcDbLine
 10
0.5228798587
 20
16.9106007067
 30
0.0
 11
0.2937889229
 21
16.9106007067
 31
0.0
  0
LINE
  5
5A
330
1F
100
AcDbEntity
  8
0
  6
Continuous
 62
     7
370
     0
100
AcDbLine
 10
0.5228798587
 20
11.4106007067
 30
0.0
 11
0.3978798587
 21
11.4106007067
 31
0.0
  0
LINE
  5
5B
330
1F
100
AcDbEntity
  8
0
  6
Continuous
 62
     7
370
     0
100
AcDbLine
 10
0.5228798587
 20
5.9106007067
 30
0.0
 11
0.3978798587
 21
5.9106007067
 31
0.0
  0
LINE
  5
5C
330
1F
100
AcDbEntity
  8
0
  6
Continuous
 62
     7
370
     0
100
AcDbLine
 10
0.5228798587
 20
22.4106007067
 30
0.0
 11
0.3978798587
 21
22.4106007067
 31
0.0
  0
LINE
  5
5D
330
1F
100
AcDbEntity
  8
0
  6
Continuous
 62
     7
370
     0
100
AcDbLine
 10
0.5228798587
 20
27.9106007067
 30
0.0
 11
0.3978798587
 21
27.9106007067
 31
0.0
  0
LINE
  5
5E
330
1F
100
AcDbEntity
  8
0
  6
Continuous
 62
     7
370
     0
100
AcDbLine
 10
0.3988896391
 20
16.9761411545
 30
0.0
 11
0.3988896391
 21
16.8373306764
 31
0.0
  0
LINE
  5
5F
330
1F
100
AcDbEntity
  8
0
  6
Continuous
 62
     7
370
     0
100
AcDbLine
 10
0.3988896391
 20
16.8373306764
 30
0.0
 11
0.5228798587
 21
16.9106007067
 31
0.0
  0
LINE
  5
60
330
1F
100
AcDbEntity
  8
0
  6
Continuous
 62
     7
370
     0
100
AcDbLine
 10
0.5228798587
 20
16.9106007067
 30
0.0
 11
0.3988896391
 21
16.9761411545
 31
0.0
  0
LINE
  5
61
330
1F
100
AcDbEntity
  8
0
  6
Continuous
 62
     7
370
     0
100
AcDbLine
 10
0.3988896391
 20
16.9576751548
 30
0.0
 11
0.5228798587
 21
16.9106007067
 31
0.0
  0
LINE
  5
62
330
1F
100
AcDbEntity
  8
0
  6
Continuous
 62
     7
370
     0
100
AcDbLine
 10
0.3988896391
 20
16.9337246377
 30
0.0
 11
0.5228798587
 21
16.9106007067
 31
0.0
  0
LINE
  5
63
330
1F
100
AcDbEntity
  8
0
  6
Continuous
 62
     7
370
     0
100
AcDbLine
 10
0.3988896391
 20
16.8646366078
 30
0.0
 11
0.5228798587
 21
16.9106007067
 31
0.0
  0
LINE
  5
64
330
1F
100
AcDbEntity
  8
0
  6
Continuous
 62
     7
370
     0
100
AcDbLine
 10
0.3988896391
 20
16.891350646
 30
0.0
 11
0.5228798587
 21
16.9106007067
 31
0.0
  0
LINE
  5
65
330
1F
100
AcDbEntity
  8
0
  6
Continuous
 62
     7
370
     0
100
AcDbLine
 10
22.0228798587
 20
0.4106007067
 30
0.0
 11
22.0228798587
 21
0.162905102
 31
0.0
  0
LINE
  5
66
330
1F
100
AcDbEntity
  8
0
  6
Continuous
 62
     7
370
     0
100
AcDbLine
 10
22.0228798587
 20
0.4106007067
 30
0.0
 11
21.980904688
 21
0.3249810204
 31
0.0
  0
LINE
  5
67
330
1F
100
AcDbEntity
  8
0
  6
Continuous
 62
     7
370
     0
100
AcDbLine
 10
21.980904688
 20
0.3249810204
 30
0.0
 11
22.0669961475
 21
0.3249810204
 31
0.0
  0
LINE
  5
68
330
1F
100
AcDbEntity
  8
0
  6
Continuous
 62
     7
370
     0
100
AcDbLine
 10
22.0228798587
 20
0.4106007067
 30
0.0
 11
22.0669961475
 21
0.3249810204
 31
0.0
  0
LINE
  5
69
330
1F
100
AcDbEntity
  8
0
  6
Continuous
 62
     7
370
     0
100
AcDbLine
 10
22.0228798587
 20
0.4106007067
 30
0.0
 11
22.0459561924
 21
0.3249810204
 31
0.0
  0
LINE
  5
6A
330
1F
100
AcDbEntity
  8
0
  6
Continuous
 62
     7
370
     0
100
AcDbLine
 10
22.0228798587
 20
0.4106007067
 30
0.0
 11
21.989070388
 21
0.3249810204
 31
0.0
  0
LINE
  5
6B
330
1F
100
AcDbEntity
  8
0
  6
Continuous
 62
     7
370
     0
100
AcDbLine
 10
22.0228798587
 20
0.4106007067
 30
0.0
 11
22.0085518278
 21
0.3249810204
 31
0.0
  0
LINE
  5
6C
330
1F
100
AcDbEntity
  8
0
  6
Continuous
 62
     7
370
     0
100
AcDbLine
 10
22.0228798587
 20
0.4106007067
 30
0.0
 11
22.0358258437
 21
0.3249810204
 31
0.0
  0
LINE
  5
6D
330
1F
100
AcDbEntity
  8
0
  6
Continuous
 62
     7
370
     0
100
AcDbLine
 10
42.9509445632
 20
1.1073138652
 30
0.0
 11
42.9509445632
 21
0.6260093612
 31
0.0
  0
LINE
  5
6E
330
1F
100
AcDbEntity
  8
0
  6
Continuous
 62
     7
370
     0
100
AcDbLine
 10
43.6468700782
 20
16.891350646
 30
0.0
 11
43.5228798587
 21
16.9106007067
 31
0.0
  0
LINE
  5
6F
330
1F
100
AcDbEntity
  8
0
  6
Continuous
 62
     7
370
     0
100
AcDbLine
 10
43.6468700782
 20
16.8646366078
 30
0.0
 11
43.5228798587
 21
16.9106007067
 31
0.0
  0
LINE
  5
70
330
1F
100
AcDbEntity
  8
0
  6
Continuous
 62
     7
370
     0
100
AcDbLine
 10
43.6468700782
 20
16.9337246377
 30
0.0
 11
43.5228798587
 21
16.9106007067
 31
0.0
  0
LINE
  5
71
330
1F
100
AcDbEntity
  8
0
  6
Continuous
 62
     7
370
     0
100
AcDbLine
 10
43.6468700782
 20
16.9576751548
 30
0.0
 11
43.5228798587
 21
16.9106007067
 31
0.0
  0
LINE
  5
72
330
1F
100
AcDbEntity
  8
0
  6
Continuous
 62
     7
370
     0
100
AcDbLine
 10
43.5228798587
 20
16.9106007067
 30
0.0
 11
43.6468700782
 21
16.9761411545
 31
0.0
  0
LINE
  5
73
330
1F
100
AcDbEntity
  8
0
  6
Continuous
 62
     7
370
     0
100
AcDbLine
 10
43.6468700782
 20
16.8373306764
 30
0.0
 11
43.5228798587
 21
16.9106007067
 31
0.0
  0
LINE
  5
74
330
1F
100
AcDbEntity
  8
0
  6
Continuous
 62
     7
370
     0
100
AcDbLine
 10
43.6468700782
 20
16.9761411545
 30
0.0
 11
43.6468700782
 21
16.8373306764
 31
0.0
  0
LINE
  5
75
330
1F
100
AcDbEntity
  8
0
  6
Continuous
 62
     7
370
     0
100
AcDbLine
 10
43.5228798587
 20
27.9106007067
 30
0.0
 11
43.6478798587
 21
27.9106007067
 31
0.0
  0
LINE
  5
76
330
1F
100
AcDbEntity
  8
0
  6
Continuous
 62
     7
370
     0
100
AcDbLine
 10
43.5228798587
 20
22.4106007067
 30
0.0
 11
43.6478798587
 21
22.4106007067
 31
0.0
  0
LINE
  5
77
330
1F
100
AcDbEntity
  8
0
  6
Continuous
 62
     7
370
     0
100
AcDbLine
 10
43.5228798587
 20
5.9106007067
 30
0.0
 11
43.6478798587
 21
5.9106007067
 31
0.0
  0
LINE
  5
78
330
1F
100
AcDbEntity
  8
0
  6
Continuous
 62
     7
370
     0
100
AcDbLine
 10
43.5228798587
 20
11.4106007067
 30
0.0
 11
43.6478798587
 21
11.4106007067
 31
0.0
  0
LINE
  5
79
330
1F
100
AcDbEntity
  8
0
  6
Continuous
 62
     7
370
     0
100
AcDbLine
 10
43.5228798587
 20
16.9106007067
 30
0.0
 11
43.7519707944
 21
16.9106007067
 31
0.0
  0
LINE
  5
7A
330
1F
100
AcDbEntity
  8
0
  6
Continuous
 62
     7
370
     0
100
AcDbLine
 10
22.0228798587
 20
33.4106007067
 30
0.0
 11
22.0358258437
 21
33.496220393
 31
0.0
  0
LINE
  5
7B
330
1F
100
AcDbEntity
  8
0
  6
Continuous
 62
     7
370
     0
100
AcDbLine
 10
22.0228798587
 20
33.4106007067
 30
0.0
 11
22.0085518278
 21
33.496220393
 31
0.0
  0
LINE
  5
7C
330
1F
100
AcDbEntity
  8
0
  6
Continuous
 62
     7
370
     0
100
AcDbLine
 10
22.0228798587
 20
33.4106007067
 30
0.0
 11
21.989070388
 21
33.496220393
 31
0.0
  0
LINE
  5
7D
330
1F
100
AcDbEntity
  8
0
  6
Continuous
 62
     7
370
     0
100
AcDbLine
 10
22.0228798587
 20
33.4106007067
 30
0.0
 11
22.0459561924
 21
33.496220393
 31
0.0
  0
LINE
  5
7E
330
1F
100
AcDbEntity
  8
0
  6
Continuous
 62
     7
370
     0
100
AcDbLine
 10
22.0228798587
 20
33.4106007067
 30
0.0
 11
22.0669961475
 21
33.496220393
 31
0.0
  0
LINE
  5
7F
330
1F
100
AcDbEntity
  8
0
  6
Continuous
 62
     7
370
     0
100
AcDbLine
 10
21.980904688
 20
33.496220393
 30
0.0
 11
22.0669961475
 21
33.496220393
 31
0.0
  0
LINE
  5
80
330
1F
100
AcDbEntity
  8
0
  6
Continuous
 62
     7
370
     0
100
AcDbLine
 10
22.0228798587
 20
33.4106007067
 30
0.0
 11
21.980904688
 21
33.496220393
 31
0.0
  0
LINE
  5
81
330
1F
100
AcDbEntity
  8
0
  6
Continuous
 62
     7
370
     0
100
AcDbLine
 10
22.0228798587
 20
33.4106007067
 30
0.0
 11
22.0228798587
 21
33.6582963114
 31
0.0
  0
LINE
  5
82
330
1F
100
AcDbEntity
  8
0
  6
Continuous
 62
     7
370
     0
100
AcDbLine
 10
5.8978798587
 20
33.4106007067
 30
0.0
 11
5.8978798587
 21
33.4953999125
 31
0.0
  0
LINE
  5
83
330
1F
100
AcDbEntity
  8
0
  6
Continuous
 62
     7
370
     0
100
AcDbLine
 10
11.2728798587
 20
33.4106007067
 30
0.0
 11
11.2728798587
 21
33.4953999125
 31
0.0
  0
LINE
  5
84
330
1F
100
AcDbEntity
  8
0
  6
Continuous
 62
     7
370
     0
100
AcDbLine
 10
16.6478798587
 20
33.4106007067
 30
0.0
 11
16.6478798587
 21
33.4953999125
 31
0.0
  0
LINE
  5
85
330
1F
100
AcDbEntity
  8
0
  6
Continuous
 62
     7
370
     0
100
AcDbLine
 10
27.3978798587
 20
33.4106007067
 30
0.0
 11
27.3978798587
 21
33.4953999125
 31
0.0
  0
LINE
  5
86
330
1F
100
AcDbEntity
  8
0
  6
Continuous
 62
     7
370
     0
100
AcDbLine
 10
38.1478798587
 20
33.4106007067
 30
0.0
 11
38.1478798587
 21
33.4953999125
 31
0.0
  0
LINE
  5
87
330
1F
100
AcDbEntity
  8
0
  6
Continuous
 62
     7
370
     0
100
AcDbLine
 10
32.7728798587
 20
33.4106007067
 30
0.0
 11
32.7728798587
 21
33.4953999125
 31
0.0
  0
LINE
  5
88
330
1F
100
AcDbEntity
  8
0
  6
Continuous
 62
     7
370
     0
100
AcDbLine
 10
42.5592085218
 20
0.6260093612
 30
0.0
 11
42.5592085218
 21
0.4131235219
 31
0.0
  0
LINE
  5
89
330
1F
100
AcDbEntity
  8
0
  6
Continuous
 62
     7
370
     0
100
AcDbLine
 10
43.6475894321
 20
10.9425981686
 30
0.0
 11
43.9373874447
 21
10.9425981686
 31
0.0
  0
LINE
  5
8A
330
1F
100
AcDbEntity
  8
0
  6
Continuous
 62
     7
370
     0
100
AcDbLine
 10
43.6475894321
 20
10.9425981686
 30
0.0
 11
43.6475894321
 21
9.320001165
 31
0.0
  0
LINE
  5
8B
330
1F
100
AcDbEntity
  8
0
  6
Continuous
 62
     7
370
     0
100
AcDbLine
 10
43.6475894321
 20
9.320001165
 30
0.0
 11
43.9373874447
 21
9.320001165
 31
0.0
  0
LINE
  5
8C
330
1F
100
AcDbEntity
  8
0
  6
Continuous
 62
     7
370
     0
100
AcDbLine
 10
43.9373874447
 20
10.9425981686
 30
0.0
 11
43.9373874447
 21
9.320001165
 31
0.0
  0
LINE
  5
8D
330
1F
100
AcDbEntity
  8
0
  6
Continuous
 62
     7
370
     0
100
AcDbLine
 10
43.9373874447
 20
10.7104644774
 30
0.0
 11
43.6475894321
 21
10.7104644774
 31
0.0
  0
LINE
  5
8E
330
1F
100
AcDbEntity
  8
0
  6
Continuous
 62
     7
370
     0
100
AcDbLine
 10
37.6911369874
 20
0.609398351
 30
0.0
 11
39.07258811
 21
0.609398351
 31
0.0
  0
LINE
  5
8F
330
1F
100
AcDbEntity
  8
0
  6
Continuous
 62
     7
370
     0
100
AcDbLine
 10
40.7601607825
 20
1.1073138652
 30
0.0
 11
39.07258811
 21
1.1073138652
 31
0.0
  0
LINE
  5
90
330
1F
100
AcDbEntity
  8
0
  6
Continuous
 62
     7
370
     0
100
AcDbLine
 10
40.7641598631
 20
1.3167640022
 30
0.0
 11
39.07258811
 21
1.3167640022
 31
0.0
  0
LINE
  5
91
330
1F
100
AcDbEntity
  8
0
  6
Continuous
 62
     7
370
     0
100
AcDbLine
 10
40.2200569599
 20
1.6988394361
 30
0.0
 11
40.2200569599
 21
1.3167640022
 31
0.0
  0
LINE
  5
92
330
1F
100
AcDbEntity
  8
0
  6
Continuous
 62
     7
370
     0
100
AcDbLine
 10
39.520441938
 20
1.6988394361
 30
0.0
 11
39.520441938
 21
1.3167640022
 31
0.0
  0
LINE
  5
93
330
1F
100
AcDbEntity
  8
0
  6
Continuous
 62
     7
370
     0
100
AcDbLine
 10
37.6911369874
 20
0.8768468816
 30
0.0
 11
39.07258811
 21
0.8768468816
 31
0.0
  0
LINE
  5
94
330
1F
100
AcDbEntity
  8
0
  6
Continuous
 62
     7
370
     0
100
AcDbLine
 10
37.6911369874
 20
1.1274714877
 30
0.0
 11
39.0727239771
 21
1.1274714877
 31
0.0
  0
LINE
  5
95
330
1F
100
AcDbEntity
  8
0
  6
Continuous
 62
     7
370
     0
100
AcDbLine
 10
40.7601607825
 20
1.52301388
 30
0.0
 11
39.07258811
 21
1.52301388
 31
0.0
  0
LINE
  5
96
330
1F
100
AcDbEntity
  8
0
  6
Continuous
 62
     7
370
     0
100
AcDbLine
 10
37.6911369874
 20
1.1274714877
 30
0.0
 11
33.2228798587
 21
1.1274714877
 31
0.0
  0
LINE
  5
97
330
1F
100
AcDbEntity
  8
0
  6
Continuous
 62
     7
370
     0
100
AcDbLine
 10
35.6476298587
 20
0.4128891461
 30
0.0
 11
35.6601848325
 21
0.3783159754
 31
0.0
  0
LINE
  5
98
330
1F
100
AcDbEntity
  8
0
  6
Continuous
 62
     7
370
     0
100
AcDbLine
 10
35.6601848325
 20
0.3783159754
 30
0.0
 11
35.6343787412
 21
0.3783159754
 31
0.0
  0
LINE
  5
99
330
1F
100
AcDbEntity
  8
0
  6
Continuous
 62
     7
370
     0
100
AcDbLine
 10
35.6343787412
 20
0.3783159754
 30
0.0
 11
35.6476298587
 21
0.4128891461
 31
0.0
  0
INSERT
  5
C7
330
1F
100
AcDbEntity
  8
0
  6
Continuous
 62
     7
370
     0
100
AcDbBlockReference
  2
SW_NOTE_0
 10
1.6554204878
 20
4.4955742173
 30
0.0
  0
MTEXT
  5
C8
330
1F
100
AcDbEntity
  8
0
  6
Continuous
 62
     7
370
     0
100
AcDbMText
 10
43.6322470583
 20
19.8664643847
 30
0.0
 40
0.09375
 41
0.0
 71
     1
 72
     1
  1
D
  7
SLDTEXTSTYLE0
 73
     1
 44
1.0
  0
MTEXT
  5
C9
330
1F
100
AcDbEntity
  8
0
  6
Continuous
 62
     7
370
     0
100
AcDbMText
 10
43.6196289625
 20
14.1177876935
 30
0.0
 40
0.09375
 41
0.0
 71
     1
 72
     1
  1
C
  7
SLDTEXTSTYLE0
 73
     1
 44
1.0
  0
MTEXT
  5
CA
330
1F
100
AcDbEntity
  8
0
  6
Continuous
 62
     7
370
     0
100
AcDbMText
 10
43.6484943961
 20
8.9256230619
 30
0.0
 40
0.09375
 41
0.0
 71
     1
 72
     1
  1
B
  7
SLDTEXTSTYLE0
 73
     1
 44
1.0
  0
MTEXT
  5
CB
330
1F
100
AcDbEntity
  8
0
  6
Continuous
 62
     7
370
     0
100
AcDbMText
 10
43.6294008463
 20
3.3353994867
 30
0.0
 40
0.09375
 41
0.0
 71
     1
 72
     1
  1
A
  7
SLDTEXTSTYLE0
 73
     1
 44
1.0
  0
MTEXT
  5
CC
330
1F
100
AcDbEntity
  8
0
  6
Continuous
 62
     7
370
     0
100
AcDbMText
 10
0.3297932657
 20
3.2313977481
 30
0.0
 40
0.09375
 41
0.0
 71
     1
 72
     1
  1
A
  7
SLDTEXTSTYLE0
 73
     1
 44
1.0
  0
MTEXT
  5
CD
330
1F
100
AcDbEntity
  8
0
  6
Continuous
 62
     7
370
     0
100
AcDbMText
 10
0.3219645349
 20
8.8400502074
 30
0.0
 40
0.09375
 41
0.0
 71
     1
 72
     1
  1
B
  7
SLDTEXTSTYLE0
 73
     1
 44
1.0
  0
MTEXT
  5
CE
330
1F
100
AcDbEntity
  8
0
  6
Continuous
 62
     7
370
     0
100
AcDbMText
 10
0.3254725525
 20
14.1322610662
 30
0.0
 40
0.09375
 41
0.0
 71
     1
 72
     1
  1
C
  7
SLDTEXTSTYLE0
 73
     1
 44
1.0
  0
MTEXT
  5
CF
330
1F
100
AcDbEntity
  8
0
  6
Continuous
 62
     7
370
     0
100
AcDbMText
 10
0.3127571033
 20
19.4357087223
 30
0.0
 40
0.09375
 41
0.0
 71
     1
 72
     1
  1
D
  7
SLDTEXTSTYLE0
 73
     1
 44
1.0
  0
MTEXT
  5
D0
330
1F
100
AcDbEntity
  8
0
  6
Continuous
 62
     7
370
     0
100
AcDbMText
 10
40.4606753402
 20
0.333242509
 30
0.0
 40
0.09375
 41
0.0
 71
     1
 72
     1
  1
1
  7
SLDTEXTSTYLE0
 73
     1
 44
1.0
  0
MTEXT
  5
D1
330
1F
100
AcDbEntity
  8
0
  6
Continuous
 62
     7
370
     0
100
AcDbMText
 10
35.3465120505
 20
0.3329198311
 30
0.0
 40
0.09375
 41
0.0
 71
     1
 72
     1
  1
2
  7
SLDTEXTSTYLE0
 73
     1
 44
1.0
  0
MTEXT
  5
D2
330
1F
100
AcDbEntity
  8
0
  6
Continuous
 62
     7
370
     0
100
AcDbMText
 10
29.9809442917
 20
0.327569249
 30
0.0
 40
0.09375
 41
0.0
 71
     1
 72
     1
  1
3
  7
SLDTEXTSTYLE0
 73
     1
 44
1.0
  0
MTEXT
  5
D3
330
1F
100
AcDbEntity
  8
0
  6
Continuous
 62
     7
370
     0
100
AcDbMText
 10
24.6674892369
 20
0.3308566579
 30
0.0
 40
0.09375
 41
0.0
 71
     1
 72
     1
  1
4
  7
SLDTEXTSTYLE0
 73
     1
 44
1.0
  0
MTEXT
  5
D4
330
1F
100
AcDbEntity
  8
0
  6
Continuous
 62
     7
370
     0
100
AcDbMText
 10
19.245113636
 20
0.3250262369
 30
0.0
 40
0.09375
 41
0.0
 71
     1
 72
     1
  1
5
  7
SLDTEXTSTYLE0
 73
     1
 44
1.0
  0
MTEXT
  5
D5
330
1F
100
AcDbEntity
  8
0
  6
Continuous
 62
     7
370
     0
100
AcDbMText
 10
13.9664145806
 20
0.3231868233
 30
0.0
 40
0.09375
 41
0.0
 71
     1
 72
     1
  1
6
  7
SLDTEXTSTYLE0
 73
     1
 44
1.0
  0
MTEXT
  5
D6
330
1F
100
AcDbEntity
  8
0
  6
Continuous
 62
     7
370
     0
100
AcDbMText
 10
8.4439796941
 20
0.3320477965
 30
0.0
 40
0.09375
 41
0.0
 71
     1
 72
     1
  1
7
  7
SLDTEXTSTYLE0
 73
     1
 44
1.0
  0
MTEXT
  5
D7
330
1F
100
AcDbEntity
  8
0
  6
Continuous
 62
     7
370
     0
100
AcDbMText
 10
3.1363377548
 20
0.3288274635
 30
0.0
 40
0.09375
 41
0.0
 71
     1
 72
     1
  1
8
  7
SLDTEXTSTYLE0
 73
     1
 44
1.0
  0
MTEXT
  5
D8
330
1F
100
AcDbEntity
  8
0
  6
Continuous
 62
     7
370
     0
100
AcDbMText
 10
3.0364844209
 20
33.6068991273
 30
0.0
 40
0.09375
 41
0.0
 71
     1
 72
     1
  1
8
  7
SLDTEXTSTYLE0
 73
     1
 44
1.0
  0
MTEXT
  5
D9
330
1F
100
AcDbEntity
  8
0
  6
Continuous
 62
     7
370
     0
100
AcDbMText
 10
8.535532856
 20
33.6048038328
 30
0.0
 40
0.09375
 41
0.0
 71
     1
 72
     1
  1
7
  7
SLDTEXTSTYLE0
 73
     1
 44
1.0
  0
MTEXT
  5
DA
330
1F
100
AcDbEntity
  8
0
  6
Continuous
 62
     7
370
     0
100
AcDbMText
 10
13.9604017419
 20
33.6056067569
 30
0.0
 40
0.09375
 41
0.0
 71
     1
 72
     1
  1
6
  7
SLDTEXTSTYLE0
 73
     1
 44
1.0
  0
MTEXT
  5
DB
330
1F
100
AcDbEntity
  8
0
  6
Continuous
 62
     7
370
     0
100
AcDbMText
 10
19.2906367864
 20
33.6072580431
 30
0.0
 40
0.09375
 41
0.0
 71
     1
 72
     1
  1
5
  7
SLDTEXTSTYLE0
 73
     1
 44
1.0
  0
MTEXT
  5
DC
330
1F
100
AcDbEntity
  8
0
  6
Continuous
 62
     7
370
     0
100
AcDbMText
 10
24.709329479
 20
33.6026755252
 30
0.0
 40
0.09375
 41
0.0
 71
     1
 72
     1
  1
4
  7
SLDTEXTSTYLE0
 73
     1
 44
1.0
  0
MTEXT
  5
DD
330
1F
100
AcDbEntity
  8
0
  6
Continuous
 62
     7
370
     0
100
AcDbMText
 10
30.0240316527
 20
33.6061500768
 30
0.0
 40
0.09375
 41
0.0
 71
     1
 72
     1
  1
3
  7
SLDTEXTSTYLE0
 73
     1
 44
1.0
  0
MTEXT
  5
DE
330
1F
100
AcDbEntity
  8
0
  6
Continuous
 62
     7
370
     0
100
AcDbMText
 10
35.504960555
 20
33.6046899663
 30
0.0
 40
0.09375
 41
0.0
 71
     1
 72
     1
  1
2
  7
SLDTEXTSTYLE0
 73
     1
 44
1.0
  0
MTEXT
  5
DF
330
1F
100
AcDbEntity
  8
0
  6
Continuous
 62
     7
370
     0
100
AcDbMText
 10
40.9016833993
 20
33.6074364375
 30
0.0
 40
0.09375
 41
0.0
 71
     1
 72
     1
  1
1
  7
SLDTEXTSTYLE0
 73
     1
 44
1.0
  0
MTEXT
  5
E0
330
1F
100
AcDbEntity
  8
0
  6
Continuous
 62
     7
370
     0
100
AcDbMText
 10
0.3224935021
 20
25.4284228379
 30
0.0
 40
0.09375
 41
0.0
 71
     1
 72
     1
  1
E
  7
SLDTEXTSTYLE0
 73
     1
 44
1.0
  0
MTEXT
  5
E1
330
1F
100
AcDbEntity
  8
0
  6
Continuous
 62
     7
370
     0
100
AcDbMText
 10
0.3184053596
 20
31.083576806
 30
0.0
 40
0.09375
 41
0.0
 71
     1
 72
     1
  1
F
  7
SLDTEXTSTYLE0
 73
     1
 44
1.0
  0
MTEXT
  5
E2
330
1F
100
AcDbEntity
  8
0
  6
Continuous
 62
     7
370
     0
100
AcDbMText
 10
43.6568427918
 20
25.4492730822
 30
0.0
 40
0.09375
 41
0.0
 71
     1
 72
     1
  1
E
  7
SLDTEXTSTYLE0
 73
     1
 44
1.0
  0
MTEXT
  5
E3
330
1F
100
AcDbEntity
  8
0
  6
Continuous
 62
     7
370
     0
100
AcDbMText
 10
43.6646062608
 20
30.6694007771
 30
0.0
 40
0.09375
 41
0.0
 71
     1
 72
     1
  1
F
  7
SLDTEXTSTYLE0
 73
     1
 44
1.0
  0
MTEXT
  5
E4
330
1F
100
AcDbEntity
  8
0
  6
Continuous
 62
     7
370
     0
100
AcDbMText
 10
43.7266269353
 20
9.3928523492
 30
0.0
 40
0.1377952756
 41
0.0
 71
     1
 72
     1
  1
E
  7
SLDTEXTSTYLE0
 11
-3.491481338843133E-15
 21
1.0
 31
0.0
 73
     1
 44
1.0
  0
MTEXT
  5
E5
330
1F
100
AcDbEntity
  8
0
  6
Continuous
 62
     7
370
     0
100
AcDbMText
 10
43.7693306712
 20
9.3959552955
 30
0.0
 40
0.1
 41
0.0
 71
     1
 72
     1
  1
10inDASH INSERT PANELS
  7
SLDTEXTSTYLE0
 11
-3.491481338843133E-15
 21
1.0
 31
0.0
 73
     1
 44
1.0
  0
MTEXT
  5
E6
330
1F
100
AcDbEntity
  8
0
  6
Continuous
 62
     7
370
     0
100
AcDbMText
 10
43.6805293142
 20
10.7495221505
 30
0.0
 40
0.06
 41
0.0
 71
     1
 72
     1
  1
REV
  7
SLDTEXTSTYLE0
 11
-3.491481338843133E-15
 21
1.0
 31
0.0
 73
     1
 44
1.0
  0
MTEXT
  5
E7
330
1F
100
AcDbEntity
  8
0
  6
Continuous
 62
     7
370
     0
100
AcDbMText
 10
37.7138129566
 20
1.1020923938
 30
0.0
 40
0.06
 41
0.0
 71
     1
 72
     1
  1
MATERIAL
  7
SLDTEXTSTYLE0
 73
     1
 44
1.0
  0
INSERT
  5
ED
330
1F
100
AcDbEntity
  8
0
  6
Continuous
 62
     7
370
     0
100
AcDbBlockReference
  2
SW_NOTE_1
 10
33.2709702433
 20
0.9031137821
 30
0.0
  0
INSERT
  5
F4
330
1F
100
AcDbEntity
  8
0
  6
Continuous
 62
     7
370
     0
100
AcDbBlockReference
  2
SW_NOTE_2
 10
33.2709702433
 20
0.6588051037
 30
0.0
  0
MTEXT
  5
F5
330
1F
100
AcDbEntity
  8
0
  6
Continuous
 62
     7
370
     0
100
AcDbMText
 10
33.2709702433
 20
0.8555735861
 30
0.0
 40
0.06
 41
0.0
 71
     1
 72
     1
  1
PROPRIETARY AND CONFIDENTIAL
  7
SLDTEXTSTYLE0
 73
     1
 44
1.0
  0
INSERT
  5
105
330
1F
100
AcDbEntity
  8
0
  6
Continuous
 62
     7
370
     0
100
AcDbBlockReference
  2
SW_NOTE_3
 10
39.1746444868
 20
0.9805264458
 30
0.0
  0
MTEXT
  5
106
330
1F
100
AcDbEntity
  8
0
  6
Continuous
 62
     7
370
     0
100
AcDbMText
 10
37.7138129566
 20
0.8555735861
 30
0.0
 40
0.06
 41
0.0
 71
     1
 72
     1
  1
FINISH
  7
SLDTEXTSTYLE0
 73
     1
 44
1.0
  0
MTEXT
  5
107
330
1F
100
AcDbEntity
  8
0
  6
Continuous
 62
     7
370
     0
100
AcDbMText
 10
39.1746444868
 20
1.4586638429
 30
0.0
 40
0.065
 41
0.0
 71
     1
 72
     1
  1
DRAWN
  7
SLDTEXTSTYLE0
 73
     1
 44
1.0
  0
MTEXT
  5
108
330
1F
100
AcDbEntity
  8
0
  6
Continuous
 62
     7
370
     0
100
AcDbMText
 10
40.4116269274
 20
1.6519374909
 30
0.0
 40
0.065
 41
0.0
 71
     1
 72
     1
  1
DATE
  7
SLDTEXTSTYLE0
 73
     1
 44
1.0
  0
MTEXT
  5
109
330
1F
100
AcDbEntity
  8
0
  6
Continuous
 62
     7
370
     0
100
AcDbMText
 10
39.6953701755
 20
1.6519374909
 30
0.0
 40
0.065
 41
0.0
 71
     1
 72
     1
  1
NAME
  7
SLDTEXTSTYLE0
 73
     1
 44
1.0
  0
MTEXT
  5
10A
330
1F
100
AcDbEntity
  8
0
  6
Continuous
 62
     7
370
     0
100
AcDbMText
 10
40.8449110408
 20
1.6873326402
 30
0.0
 40
0.1
 41
0.0
 71
     1
 72
     1
  1
TITLE:
  7
SLDTEXTSTYLE0
 73
     1
 44
1.0
  0
MTEXT
  5
10B
330
1F
100
AcDbEntity
  8
0
  6
Continuous
 62
     7
370
     0
100
AcDbMText
 10
40.8449110408
 20
1.1083216995
 30
0.0
 40
0.1
 41
0.0
 71
     1
 72
     1
  1
SIZE
  7
SLDTEXTSTYLE0
 73
     1
 44
1.0
  0
MTEXT
  5
10C
330
1F
100
AcDbEntity
  8
0
  6
Continuous
 62
     7
370
     0
100
AcDbMText
 10
40.8528011219
 20
0.965264428
 30
0.0
 40
0.25
 41
0.0
 71
     1
 72
     1
  1
E
  7
SLDTEXTSTYLE0
 73
     1
 44
1.0
  0
MTEXT
  5
10E
330
1F
100
AcDbEntity
  8
0
  6
Continuous
 62
     7
370
     0
100
AcDbMText
 10
41.1914099484
 20
1.1069228804
 30
0.0
 40
0.1
 41
0.0
 71
     1
 72
     1
  1
DWG.  NO.
  7
SLDTEXTSTYLE2
 73
     1
 44
1.0
  0
MTEXT
  5
10F
330
1F
100
AcDbEntity
  8
0
  6
Continuous
 62
     7
370
     0
100
AcDbMText
 10
43.120710957
 20
1.1030166501
 30
0.0
 40
0.1
 41
0.0
 71
     1
 72
     1
  1
REV
  7
SLDTEXTSTYLE0
 73
     1
 44
1.0
  0
MTEXT
  5
110
330
1F
100
AcDbEntity
  8
0
  6
Continuous
 62
     7
370
     0
100
AcDbMText
 10
41.5953220233
 20
0.5697266856
 30
0.0
 40
0.1
 41
0.0
 71
     1
 72
     1
  1
WEIGHT: 
  7
SLDTEXTSTYLE0
 73
     1
 44
1.0
  0
MTEXT
  5
111
330
1F
100
AcDbEntity
  8
0
  6
Continuous
 62
     7
370
     0
100
AcDbMText
 10
40.8515668234
 20
0.573149139
 30
0.0
 40
0.1
 41
0.0
 71
     1
 72
     1
  1
SCALE: 1:1
  7
SLDTEXTSTYLE0
 73
     1
 44
1.0
  0
MTEXT
  5
112
330
1F
100
AcDbEntity
  8
0
  6
Continuous
 62
     7
370
     0
100
AcDbMText
 10
39.1746444868
 20
1.2448029604
 30
0.0
 40
0.07
 41
0.0
 71
     1
 72
     1
  1
UNLESS OTHERWISE SPECIFIED:
  7
SLDTEXTSTYLE0
 73
     1
 44
1.0
  0
MTEXT
  5
113
330
1F
100
AcDbEntity
  8
0
  6
Continuous
 62
     7
370
     0
100
AcDbMText
 10
40.2805766147
 20
1.4818130477
 30
0.0
 40
0.075
 41
0.0
 71
     1
 72
     1
  1
07-26-10
  7
SLDTEXTSTYLE0
 73
     1
 44
1.0
  0
MTEXT
  5
115
330
1F
100
AcDbEntity
  8
0
  6
Continuous
 62
     7
370
     0
100
AcDbMText
 10
42.650080707
 20
0.5734743043
 30
0.0
 40
0.1
 41
0.0
 71
     1
 72
     1
  1
SHEET 1 OF 1
  7
SLDTEXTSTYLE3
 73
     1
 44
1.0
  0
MTEXT
  5
116
330
1F
100
AcDbEntity
  8
0
  6
Continuous
 62
     7
370
     0
100
AcDbMText
 10
41.1914099484
 20
0.9350888298
 30
0.0
 40
0.125
 41
0.0
 71
     1
 72
     1
  1
10inDASH INSERT PANELS
  7
SLDTEXTSTYLE0
 73
     1
 44
1.0
  0
MTEXT
  5
117
330
1F
100
AcDbEntity
  8
0
  6
Continuous
 62
     7
370
     0
100
AcDbMText
 10
37.8705375547
 20
0.5388955864
 30
0.0
 40
0.0625
 41
0.0
 71
     1
 72
     1
  1
DO NOT SCALE DRAWING
  7
SLDTEXTSTYLE0
 73
     1
 44
1.0
  0
MTEXT
  5
118
330
1F
100
AcDbEntity
  8
0
  6
Continuous
 62
     7
370
     0
100
AcDbMText
 10
43.1650625488
 20
0.9707438123
 30
0.0
 40
0.25
 41
0.0
 71
     1
 72
     1
  1
1
  7
SLDTEXTSTYLE0
 73
     1
 44
1.0
  0
MTEXT
  5
119
330
1F
100
AcDbEntity
  8
0
  6
Continuous
 62
     7
370
     0
100
AcDbMText
 10
40.8449110408
 20
1.489471842
 30
0.0
 40
0.1458333333
 41
0.0
 71
     1
 72
     1
  1
RV10 10" Dash Insert Panels
  7
SLDTEXTSTYLE0
 73
     1
 44
1.0
  0
MTEXT
  5
11A
330
1F
100
AcDbEntity
  8
0
  6
Continuous
 62
     7
370
     0
100
AcDbMText
 10
39.6010934129
 20
1.4600858731
 30
0.0
 40
0.075
 41
0.0
 71
     1
 72
     1
  1
cwalters
  7
SLDTEXTSTYLE0
 73
     1
 44
1.0
  0
LINE
  5
11B
330
1F
100
AcDbEntity
  8
0
  6
Continuous
 62
     7
370
    15
100
AcDbLine
 10
25.8837469803
 20
32.7208920201
 30
0.0
 11
17.3491313972
 21
32.7208924184
 31
0.0
  0
SPLINE
  5
11C
330
1F
100
AcDbEntity
  8
0
  6
Continuous
 62
     7
370
    15
100
AcDbSpline
210
0.0
220
0.0
230
1.0
 70
     8
 71
     3
 72
    22
 73
    18
 74
     0
 42
0.00000001
 43
0.00000001
 40
0.0
 40
0.0
 40
0.0
 40
0.0
 40
0.0356866437147435
 40
0.0711953101789626
 40
0.106644324852139
 40
0.1421526095377461
 40
0.1778384934993077
 40
0.2138185538064692
 40
0.2502065402591707
 40
0.3756305531981835
 40
0.4998163560790469
 40
0.6234775731791214
 40
0.7492870348343018
 40
0.8126371892949023
 40
0.8751512838927781
 40
0.9374097170944942
 40
1.0
 40
1.0
 40
1.0
 40
1.0
 10
25.99452177662098
 20
32.61185804129791
 30
0.0
 10
25.99448741303834
 20
32.61391016843749
 30
0.0
 10
25.9944188572519
 20
32.61800418830094
 30
0.0
 10
25.99387049562272
 20
32.6241164426138
 30
0.0
 10
25.99299518269699
 20
32.63017764921194
 30
0.0
 10
25.99176141011084
 20
32.63618764577799
 30
0.0
 10
25.99017786495358
 20
32.64214608609368
 30
0.0
 10
25.98824170835078
 20
32.64805339096909
 30
0.0
 10
25.98410497876358
 20
32.65864913457239
 30
0.0
 10
25.97626186235769
 20
32.67324016005123
 30
0.0
 10
25.96237469990788
 20
32.68979031872355
 30
0.0
 10
25.9454933080738
 20
32.7033053336844
 30
0.0
 10
25.92938685948761
 20
32.71157602697134
 30
0.0
 10
25.9157217230708
 20
32.7163882071374
 30
0.0
 10
25.90520456940526
 20
32.71897535011376
 30
0.0
 10
25.89452836135392
 20
32.72059285825136
 30
0.0
 10
25.88734713657036
 20
32.72079212295206
 30
0.0
 10
25.88374698027861
 20
32.72089202012665
 30
0.0
  0
LINE
  5
11D
330
1F
100
AcDbEntity
  8
0
  6
Continuous
 62
     7
370
    15
100
AcDbLine
 10
25.9945217766
 20
22.1188591695
 30
0.0
 11
25.9945217766
 21
32.6118580413
 31
0.0
  0
SPLINE
  5
11E
330
1F
100
AcDbEntity
  8
0
  6
Continuous
 62
     7
370
    15
100
AcDbSpline
210
0.0
220
0.0
230
1.0
 70
     8
 71
     3
 72
    22
 73
    18
 74
     0
 42
0.00000001
 43
0.00000001
 40
0.0
 40
0.0
 40
0.0
 40
0.0
 40
0.0358007298232292
 40
0.0714000247582353
 40
0.1069066048708672
 40
0.1424300415029092
 40
0.1780797505681073
 40
0.2139639929336259
 40
0.2501889267678004
 40
0.3759304974620214
 40
0.4998146741552311
 40
0.623656574639936
 40
0.7492512858569047
 40
0.8125869557983487
 40
0.8750795307270803
 40
0.9373434800763134
 40
1.0
 40
1.0
 40
1.0
 40
1.0
 10
25.88529864670085
 20
22.01059129173937
 30
0.0
 10
25.8873368351119
 20
22.01062389604914
 30
0.0
 10
25.89140174394838
 20
22.01068892121864
 30
0.0
 10
25.89746974801874
 20
22.01120929137784
 30
0.0
 10
25.90348491999287
 20
22.01204001573769
 30
0.0
 10
25.90944713027559
 20
22.01321095705282
 30
0.0
 10
25.91535605574589
 20
22.01471392674793
 30
0.0
 10
25.9212121425357
 20
22.01655159190206
 30
0.0
 10
25.93176306971304
 20
22.02049733184977
 30
0.0
 10
25.94632847345894
 20
22.02800938364144
 30
0.0
 10
25.96298494312643
 20
22.04144438130918
 30
0.0
 10
25.97665396288522
 20
22.05790494753147
 30
0.0
 10
25.98505505638412
 20
22.07374386803432
 30
0.0
 10
25.98994329757819
 20
22.08721476714805
 30
0.0
 10
25.9925739222935
 20
22.09760913114431
 30
0.0
 10
25.99421806971254
 20
22.10817691465622
 30
0.0
 10
25.9944203291138
 20
22.11529096577304
 30
0.0
 10
25.99452177662099
 20
22.11885916951206
 30
0.0
  0
LINE
  5
11F
330
1F
100
AcDbEntity
  8
0
  6
Continuous
 62
     7
370
    15
100
AcDbLine
 10
1.3890192121
 20
22.0105912917
 30
0.0
 11
25.8852986467
 21
22.0105912917
 31
0.0
  0
SPLINE
  5
120
330
1F
100
AcDbEntity
  8
0
  6
Continuous
 62
     7
370
    15
100
AcDbSpline
210
0.0
220
0.0
230
1.0
 70
     8
 71
     3
 72
    22
 73
    18
 74
     0
 42
0.00000001
 43
0.00000001
 40
0.0
 40
0.0
 40
0.0
 40
0.0
 40
0.0357038387692534
 40
0.0712349151408109
 40
0.1067045446683607
 40
0.1422246206108123
 40
0.1779065616529143
 40
0.2138602816766387
 40
0.2501932281026241
 40
0.3758628391206435
 40
0.499840929167836
 40
0.6237258149105125
 40
0.749271168946967
 40
0.8127532316892907
 40
0.8752883938814331
 40
0.9374947124566642
 40
1.0
 40
1.0
 40
1.0
 40
1.0
 10
1.279651705393766
 20
22.12073451204845
 30
0.0
 10
1.279685008236773
 20
22.11868450526693
 30
0.0
 10
1.279751452778241
 20
22.11459441119993
 30
0.0
 10
1.280282787648846
 20
22.10848676649799
 30
0.0
 10
1.281130872780793
 20
22.10242798836375
 30
0.0
 10
1.282326254156821
 20
22.09641821612839
 30
0.0
 10
1.283860531175897
 20
22.09045777497526
 30
0.0
 10
1.285736431713409
 20
22.08454622873453
 30
0.0
 10
1.289754287781284
 20
22.07391327978496
 30
0.0
 10
1.297381998373619
 20
22.05924297583598
 30
0.0
 10
1.310969980952769
 20
22.04247332866611
 30
0.0
 10
1.327579757258787
 20
22.02869461110659
 30
0.0
 10
1.343549578458076
 20
22.02020075306656
 30
0.0
 10
1.35713413172855
 20
22.0152438722439
 30
0.0
 10
1.367619942760037
 20
22.01257133067131
 30
0.0
 10
1.378266522990637
 20
22.010900357616
 30
0.0
 10
1.385429258664468
 20
22.01069447821528
 30
0.0
 10
1.389019212052319
 20
22.01059129173937
 30
0.0
  0
LINE
  5
121
330
1F
100
AcDbEntity
  8
0
  6
Continuous
 62
     7
370
    15
100
AcDbLine
 10
1.2796517054
 20
25.9924563505
 30
0.0
 11
1.2796517054
 21
22.120734512
 31
0.0
  0
CIRCLE
  5
122
330
1F
100
AcDbEntity
  8
0
  6
Continuous
 62
     7
370
    15
100
AcDbCircle
 10
1.4671517054
 20
22.1980912917
 30
0.0
 40
0.0749999999999995
  0
CIRCLE
  5
123
330
1F
100
AcDbEntity
  8
0
  6
Continuous
 62
     7
370
    15
100
AcDbCircle
 10
25.8070217766
 20
22.1980912917
 30
0.0
 40
0.0750000000000028
  0
CIRCLE
  5
124
330
1F
100
AcDbEntity
  8
0
  6
Continuous
 62
     7
370
    15
100
AcDbCircle
 10
25.8070217766
 20
32.5333920237
 30
0.0
 40
0.0750000000000028
  0
CIRCLE
  5
125
330
1F
100
AcDbEntity
  8
0
  6
Continuous
 62
     7
370
    15
100
AcDbCircle
 10
11.887086741
 20
22.1980912917
 30
0.0
 40
0.0749999999999993
  0
CIRCLE
  5
126
330
1F
100
AcDbEntity
  8
0
  6
Continuous
 62
     7
370
    15
100
AcDbCircle
 10
15.387086741
 20
22.1980912917
 30
0.0
 40
0.0749999999999993
  0
CIRCLE
  5
127
330
1F
100
AcDbEntity
  8
0
  6
Continuous
 62
     7
370
    15
100
AcDbCircle
 10
18.887086741
 20
22.1980912917
 30
0.0
 40
0.0749999999999993
  0
CIRCLE
  5
128
330
1F
100
AcDbEntity
  8
0
  6
Continuous
 62
     7
370
    15
100
AcDbCircle
 10
22.387086741
 20
22.1980912917
 30
0.0
 40
0.0750000000000028
  0
CIRCLE
  5
129
330
1F
100
AcDbEntity
  8
0
  6
Continuous
 62
     7
370
    15
100
AcDbCircle
 10
4.887086741
 20
22.1980912917
 30
0.0
 40
0.0749999999999993
  0
CIRCLE
  5
12A
330
1F
100
AcDbEntity
  8
0
  6
Continuous
 62
     7
370
    15
100
AcDbCircle
 10
8.387086741
 20
22.1980912917
 30
0.0
 40
0.0749999999999993
  0
CIRCLE
  5
12B
330
1F
100
AcDbEntity
  8
0
  6
Continuous
 62
     7
370
    15
100
AcDbCircle
 10
25.8070217766
 20
25.6157416577
 30
0.0
 40
0.0750000000000028
  0
CIRCLE
  5
12C
330
1F
100
AcDbEntity
  8
0
  6
Continuous
 62
     7
370
    15
100
AcDbCircle
 10
25.8070217766
 20
29.1157416577
 30
0.0
 40
0.0750000000000028
  0
CIRCLE
  5
12D
330
1F
100
AcDbEntity
  8
0
  6
Continuous
 62
     7
370
    15
100
AcDbCircle
 10
22.3070217766
 20
32.533392187
 30
0.0
 40
0.0750000000000028
  0
CIRCLE
  5
12E
330
1F
100
AcDbEntity
  8
0
  6
Continuous
 62
     7
370
    15
100
AcDbCircle
 10
18.8070217486
 20
32.5333923504
 30
0.0
 40
0.0750000000000028
  0
CIRCLE
  5
12F
330
1F
100
AcDbEntity
  8
0
  6
Continuous
 62
     7
370
    15
100
AcDbCircle
 10
15.3072433395
 20
32.505560136
 30
0.0
 40
0.0750000000000024
  0
CIRCLE
  5
130
330
1F
100
AcDbEntity
  8
0
  6
Continuous
 62
     7
370
    15
100
AcDbCircle
 10
11.8151070036
 20
32.2867525915
 30
0.0
 40
0.0750000000000025
  0
CIRCLE
  5
131
330
1F
100
AcDbEntity
  8
0
  6
Continuous
 62
     7
370
    15
100
AcDbCircle
 10
8.373957218
 20
31.6664125966
 30
0.0
 40
0.0750000000000031
  0
CIRCLE
  5
132
330
1F
100
AcDbEntity
  8
0
  6
Continuous
 62
     7
370
    15
100
AcDbCircle
 10
5.1264090942
 20
30.3860156193
 30
0.0
 40
0.0750000000000024
  0
CIRCLE
  5
133
330
1F
100
AcDbEntity
  8
0
  6
Continuous
 62
     7
370
    15
100
AcDbCircle
 10
2.4403223378
 20
28.1727626954
 30
0.0
 40
0.0750000000000065
  0
CIRCLE
  5
134
330
1F
100
AcDbEntity
  8
0
  6
Continuous
 62
     7
370
    15
100
AcDbCircle
 10
1.4671517054
 20
25.6157416577
 30
0.0
 40
0.0749999999999995
  0
SPLINE
  5
135
330
1F
100
AcDbEntity
  8
0
  6
Continuous
 62
     7
370
    15
100
AcDbSpline
210
0.0
220
0.0
230
1.0
 70
     8
 71
     3
 72
    31
 73
    27
 74
     0
 42
0.00000001
 43
0.00000001
 40
0.0
 40
0.0
 40
0.0
 40
0.0
 40
0.0193141461715709
 40
0.0386136044641984
 40
0.0579009060648746
 40
0.0771785869491626
 40
0.0964491868908347
 40
0.1157152484640218
 40
0.1349793160398539
 40
0.1542439347795289
 40
0.1735116496258291
 40
0.1927850042950622
 40
0.2120665402714368
 40
0.2313587958058441
 40
0.2506643049210152
 40
0.3759683677302886
 40
0.5012722921403192
 40
0.6259604668713552
 40
0.7506529887317045
 40
0.7863060689100303
 40
0.8219217463689139
 40
0.8575160311417062
 40
0.8931049621329064
 40
0.9287045854832225
 40
0.9643309328858242
 40
1.0
 40
1.0
 40
1.0
 40
1.0
 10
1.770913958210275
 20
27.5939588489405
 30
0.0
 10
1.764807160271948
 20
27.58487654534667
 30
0.0
 10
1.752598208447793
 20
27.56671884500203
 30
0.0
 10
1.734687384707414
 20
27.5392281844408
 30
0.0
 10
1.717081481795094
 20
27.51156637243769
 30
0.0
 10
1.699808725358391
 20
27.48371429674333
 30
0.0
 10
1.682861560384239
 20
27.4556770756762
 30
0.0
 10
1.666242011100865
 20
27.42745334036871
 30
0.0
 10
1.64994953669335
 20
27.39904345963789
 30
0.0
 10
1.633984282738629
 20
27.3704473350647
 30
0.0
 10
1.618346212794796
 20
27.34166500048433
 30
0.0
 10
1.603035331854307
 20
27.31269642805758
 30
0.0
 10
1.588051660768883
 20
27.28354170465391
 30
0.0
 10
1.573395115001144
 20
27.25420051989405
 30
0.0
 10
1.532846015452596
 20
27.1706452191288
 30
0.0
 10
1.471961220336132
 20
27.03016116728168
 30
0.0
 10
1.402178075540062
 20
26.8290730827341
 30
0.0
 10
1.3475634151284
 20
26.62370618291841
 30
0.0
 10
1.317766071434717
 20
26.46479372514766
 30
0.0
 10
1.302508357801681
 20
26.35480128879656
 30
0.0
 10
1.295459304475405
 20
26.29465395984344
 30
0.0
 10
1.289693627735365
 20
26.23440747416036
 30
0.0
 10
1.285202730194818
 20
26.17406098507686
 30
0.0
 10
1.282017794655928
 20
26.11361476591568
 30
0.0
 10
1.280022597948468
 20
26.05306879005023
 30
0.0
 10
1.279775385622425
 20
26.01266856620241
 30
0.0
 10
1.279651705395457
 20
25.99245635051333
 30
0.0
  0
SPLINE
  5
136
330
1F
100
AcDbEntity
  8
0
  6
Continuous
 62
     7
370
    15
100
AcDbSpline
210
0.0
220
0.0
230
1.0
 70
     8
 71
     3
 72
    50
 73
    46
 74
     0
 42
0.00000001
 43
0.00000001
 40
0.0
 40
0.0
 40
0.0
 40
0.0
 40
0.0196061484697719
 40
0.0312521994749945
 40
0.0478576084929716
 40
0.0625006215723715
 40
0.094543438366216
 40
0.1249738421081262
 40
0.1569171526689574
 40
0.1874177645519324
 40
0.249849716821429
 40
0.2816020494199944
 40
0.312312190806332
 40
0.3440145654827163
 40
0.374874049138948
 40
0.4066238508809582
 40
0.437392720008462
 40
0.4688246618147054
 40
0.4996427313343116
 40
0.5283250460305564
 40
0.5564310634114831
 40
0.5778835000378051
 40
0.5990358417875795
 40
0.6206549373208678
 40
0.641747875528242
 40
0.6965889577362632
 40
0.7492211335112234
 40
0.78055379892975
 40
0.8115484062187278
 40
0.8429928894584935
 40
0.8740770355283878
 40
0.889892787190157
 40
0.9056530343869014
 40
0.9213709841467072
 40
0.9370599503164264
 40
0.9434030556612713
 40
0.9497328493175861
 40
0.956050222988191
 40
0.9623560736447936
 40
0.9686513031846516
 40
0.9749368180770395
 40
0.981213529000139
 40
0.9874823504690187
 40
0.9937442004554058
 40
1.0
 40
1.0
 40
1.0
 40
1.0
 10
17.3491313971766
 20
32.72089241841056
 30
0.0
 10
17.23750926423783
 20
32.72007481301403
 30
0.0
 10
17.05958359108456
 20
32.7187715500614
 30
0.0
 10
16.78712024616024
 20
32.71669440711512
 30
0.0
 10
16.54291596108553
 20
32.71446786229274
 30
0.0
 10
16.18259701009766
 20
32.71049732499937
 30
0.0
 10
15.74359542221686
 20
32.70361178021052
 30
0.0
 10
15.20618564145436
 20
32.6911832832979
 30
0.0
 10
14.67767328525227
 20
32.67445036501447
 30
0.0
 10
13.96730879625184
 20
32.6450874913731
 30
0.0
 10
13.25853054554783
 20
32.60404414954353
 30
0.0
 10
12.54963033591961
 20
32.54824356454334
 30
0.0
 10
12.01584423433334
 20
32.49808128469773
 30
0.0
 10
11.48801856817567
 20
32.43955535048106
 30
0.0
 10
10.95547519137274
 20
32.3706528343343
 30
0.0
 10
10.42962893608403
 20
32.29215024420098
 30
0.0
 10
9.90231699256412
 20
32.20214633797482
 30
0.0
 10
9.382473552616146
 20
32.10070853387726
 30
0.0
 10
8.877031195296073
 20
31.98838722460894
 30
0.0
 10
8.393037593433702
 20
31.86764007646758
 30
0.0
 10
7.963708746924737
 20
31.74866762513808
 30
0.0
 10
7.578438800304863
 20
31.63177108870417
 30
0.0
 10
7.230942579082413
 20
31.51789391689996
 30
0.0
 10
6.888056565728674
 20
31.39679661797332
 30
0.0
 10
6.368967819907068
 20
31.199153909484
 30
0.0
 10
5.6971691104147
 20
30.90683291377489
 30
0.0
 10
4.997378046802672
 20
30.53780139266598
 30
0.0
 10
4.439720445335213
 20
30.19466276570443
 30
0.0
 10
3.999937740640421
 20
29.89154537059982
 30
0.0
 10
3.577931545063043
 20
29.56643433190371
 30
0.0
 10
3.239857886232614
 20
29.27508468942201
 30
0.0
 10
2.979711961957029
 20
29.03090779354974
 30
0.0
 10
2.788753910201969
 20
28.84101735214652
 30
0.0
 10
2.603890166300565
 20
28.64618703667027
 30
0.0
 10
2.460545661667683
 20
28.48600053589989
 30
0.0
 10
2.355357801658637
 20
28.36348328202805
 30
0.0
 10
2.2859022796074
 20
28.28062089603306
 30
0.0
 10
2.217571838079486
 20
28.19710245924603
 30
0.0
 10
2.150366129114404
 20
28.1129279181215
 30
0.0
 10
2.084284779679771
 20
28.02809761158421
 30
0.0
 10
2.019329661042443
 20
27.94261025857454
 30
0.0
 10
1.955493711672968
 20
27.85647065481755
 30
0.0
 10
1.892803294057049
 20
27.76966095252602
 30
0.0
 10
1.831160211283891
 20
27.68224766435937
 30
0.0
 10
1.790989570369989
 20
27.62337896929594
 30
0.0
 10
1.770913958210273
 20
27.5939588489405
 30
0.0
  0
DIMENSION
  5
137
330
1F
100
AcDbEntity
  8
0
  6
Continuous
 62
     7
370
     0
100
AcDbDimension
  2
*D6
 10
25.8852986467
 20
22.0105912917
 30
0.0
 11
27.0312576908
 21
22.0105912917
 31
0.0
 70
    38
 71
     5
 42
-1.0
  3
SLDDIMSTYLE0
100
AcDbOrdinateDimension
 13
25.8852986467
 23
22.0105912917
 33
0.0
 14
26.8610572097
 24
22.0105912917
 34
0.0
  0
DIMENSION
  5
144
330
1F
100
AcDbEntity
  8
0
  6
Continuous
 62
     7
370
     0
100
AcDbDimension
  2
*D8
 10
25.8852986467
 20
22.0105912917
 30
0.0
 11
27.4082093746
 21
22.7727593149
 31
0.0
 70
    38
 71
     5
 42
-1.0
  3
SLDDIMSTYLE1
100
AcDbOrdinateDimension
 13
25.9804469735
 23
22.1980912917
 33
0.0
 14
26.8610572097
 24
22.7727593149
 34
0.0
  0
DIMENSION
  5
156
330
1F
100
AcDbEntity
  8
0
  6
Continuous
 62
     7
370
     0
100
AcDbDimension
  2
*D9
 10
25.8852986467
 20
22.0105912917
 30
0.0
 11
27.4082093746
 21
25.6157416577
 31
0.0
 70
    38
 71
     5
 42
-1.0
  3
SLDDIMSTYLE1
100
AcDbOrdinateDimension
 13
25.9804469735
 23
25.6157416577
 33
0.0
 14
26.8610572097
 24
25.6157416577
 34
0.0
  0
DIMENSION
  5
15E
330
1F
100
AcDbEntity
  8
0
  6
Continuous
 62
     7
370
     0
100
AcDbDimension
  2
*D10
 10
25.8852986467
 20
22.0105912917
 30
0.0
 11
27.4082093746
 21
29.1157416577
 31
0.0
 70
    38
 71
     5
 42
-1.0
  3
SLDDIMSTYLE1
100
AcDbOrdinateDimension
 13
25.9804469735
 23
29.1157416577
 33
0.0
 14
26.8610572097
 24
29.1157416577
 34
0.0
  0
DIMENSION
  5
166
330
1F
100
AcDbEntity
  8
0
  6
Continuous
 62
     7
370
     0
100
AcDbDimension
  2
*D11
 10
25.8852986467
 20
22.0105912917
 30
0.0
 11
27.5159098557
 21
31.9747347593
 31
0.0
 70
    38
 71
     5
 42
-1.0
  3
SLDDIMSTYLE1
100
AcDbOrdinateDimension
 13
25.9804469735
 23
32.5333920237
 33
0.0
 14
26.8610572097
 24
31.9747347593
 34
0.0
  0
DIMENSION
  5
170
330
1F
100
AcDbEntity
  8
0
  6
Continuous
 62
     7
370
     0
100
AcDbDimension
  2
*D12
 10
25.8852986467
 20
22.0105912917
 30
0.0
 11
27.5159098557
 21
32.7208920201
 31
0.0
 70
    38
 71
     5
 42
-1.0
  3
SLDDIMSTYLE2
100
AcDbOrdinateDimension
 13
25.8837469803
 23
32.7208920201
 33
0.0
 14
26.8610572097
 24
32.7208920201
 34
0.0
  0
DIMENSION
  5
179
330
1F
100
AcDbEntity
  8
0
  6
Continuous
 62
     7
370
     0
100
AcDbDimension
  2
*D13
 10
25.9945217766
 20
22.1188591695
 30
0.0
 11
25.9945217766
 21
20.6447140997
 31
0.0
 70
   102
 71
     5
 42
-1.0
  3
SLDDIMSTYLE0
100
AcDbOrdinateDimension
 13
25.9945217766
 23
22.1188591695
 33
0.0
 14
25.9945217766
 24
20.8149145808
 34
0.0
  0
DIMENSION
  5
180
330
1F
100
AcDbEntity
  8
0
  6
Continuous
 62
     7
370
     0
100
AcDbDimension
  2
*D14
 10
25.9945217766
 20
22.1188591695
 30
0.0
 11
25.243591903
 21
20.2677624159
 31
0.0
 70
   102
 71
     5
 42
-1.0
  3
SLDDIMSTYLE1
100
AcDbOrdinateDimension
 13
25.8070217766
 23
22.0246660949
 33
0.0
 14
25.243591903
 24
20.8149145808
 34
0.0
  0
DIMENSION
  5
18A
330
1F
100
AcDbEntity
  8
0
  6
Continuous
 62
     7
370
     0
100
AcDbDimension
  2
*D15
 10
25.9945217766
 20
22.1188591695
 30
0.0
 11
22.387086741
 21
20.2677624159
 31
0.0
 70
   102
 71
     5
 42
-1.0
  3
SLDDIMSTYLE1
100
AcDbOrdinateDimension
 13
22.387086741
 23
22.0246660949
 33
0.0
 14
22.387086741
 24
20.8149145808
 34
0.0
  0
DIMENSION
  5
192
330
1F
100
AcDbEntity
  8
0
  6
Continuous
 62
     7
370
     0
100
AcDbDimension
  2
*D16
 10
25.9945217766
 20
22.1188591695
 30
0.0
 11
18.887086741
 21
20.2677624159
 31
0.0
 70
   102
 71
     5
 42
-1.0
  3
SLDDIMSTYLE1
100
AcDbOrdinateDimension
 13
18.887086741
 23
22.0246660949
 33
0.0
 14
18.887086741
 24
20.8149145808
 34
0.0
  0
DIMENSION
  5
19A
330
1F
100
AcDbEntity
  8
0
  6
Continuous
 62
     7
370
     0
100
AcDbDimension
  2
*D17
 10
25.9945217766
 20
22.1188591695
 30
0.0
 11
15.387086741
 21
20.1600619348
 31
0.0
 70
   102
 71
     5
 42
-1.0
  3
SLDDIMSTYLE1
100
AcDbOrdinateDimension
 13
15.387086741
 23
22.0246660949
 33
0.0
 14
15.387086741
 24
20.8149145808
 34
0.0
  0
DIMENSION
  5
1A2
330
1F
100
AcDbEntity
  8
0
  6
Continuous
 62
     7
370
     0
100
AcDbDimension
  2
*D18
 10
25.9945217766
 20
22.1188591695
 30
0.0
 11
11.887086741
 21
20.1600619348
 31
0.0
 70
   102
 71
     5
 42
-1.0
  3
SLDDIMSTYLE1
100
AcDbOrdinateDimension
 13
11.887086741
 23
22.0246660949
 33
0.0
 14
11.887086741
 24
20.8149145808
 34
0.0
  0
DIMENSION
  5
1AA
330
1F
100
AcDbEntity
  8
0
  6
Continuous
 62
     7
370
     0
100
AcDbDimension
  2
*D19
 10
25.9945217766
 20
22.1188591695
 30
0.0
 11
8.387086741
 21
20.1600619348
 31
0.0
 70
   102
 71
     5
 42
-1.0
  3
SLDDIMSTYLE1
100
AcDbOrdinateDimension
 13
8.387086741
 23
22.0246660949
 33
0.0
 14
8.387086741
 24
20.8149145808
 34
0.0
  0
DIMENSION
  5
1B2
330
1F
100
AcDbEntity
  8
0
  6
Continuous
 62
     7
370
     0
100
AcDbDimension
  2
*D20
 10
25.9945217766
 20
22.1188591695
 30
0.0
 11
4.887086741
 21
20.1600619348
 31
0.0
 70
   102
 71
     5
 42
-1.0
  3
SLDDIMSTYLE1
100
AcDbOrdinateDimension
 13
4.887086741
 23
22.0246660949
 33
0.0
 14
4.887086741
 24
20.8149145808
 34
0.0
  0
DIMENSION
  5
1BA
330
1F
100
AcDbEntity
  8
0
  6
Continuous
 62
     7
370
     0
100
AcDbDimension
  2
*D21
 10
25.9945217766
 20
22.1188591695
 30
0.0
 11
2.4137824104
 21
20.1600619348
 31
0.0
 70
   102
 71
     5
 42
-1.0
  3
SLDDIMSTYLE1
100
AcDbOrdinateDimension
 13
1.4671517054
 23
22.0246660949
 33
0.0
 14
2.4137824104
 24
20.8149145808
 34
0.0
  0
DIMENSION
  5
1C4
330
1F
100
AcDbEntity
  8
0
  6
Continuous
 62
     7
370
     0
100
AcDbDimension
  2
*D22
 10
25.9945217766
 20
22.1188591695
 30
0.0
 11
1.2796517054
 21
20.1600619348
 31
0.0
 70
   102
 71
     5
 42
-1.0
  3
SLDDIMSTYLE1
100
AcDbOrdinateDimension
 13
1.2796517054
 23
22.120734512
 33
0.0
 14
1.2796517054
 24
20.8149145808
 34
0.0
  0
DIMENSION
  5
1CC
330
1F
100
AcDbEntity
  8
0
  6
Continuous
 62
     7
370
     0
100
AcDbDimension
  2
*D24
 10
25.7696145051
 20
22.2630966456
 30
0.0
 11
27.1814025508
 21
21.4832092457
 31
0.0
 70
   163
  1
<>
 71
     1
 42
-1.0
  3
SLDDIMSTYLE3
100
AcDbDiametricDimension
 15
25.8444290482
 25
22.1330859378
 35
0.0
 40
0.0
  0
MTEXT
  5
1DA
330
1F
100
AcDbEntity
  8
0
  6
Continuous
 62
     7
370
     0
100
AcDbMText
 10
7.4751065072
 20
27.4058679561
 30
0.0
 40
0.375
 41
0.0
 71
     1
 72
     1
  1
10in Left Insert
  7
SLDTEXTSTYLE0
 73
     1
 44
1.0
  0
INSERT
  5
1E6
330
1F
100
AcDbEntity
  8
0
  6
Continuous
 62
     7
370
     0
100
AcDbBlockReference
  2
SW_CENTERMARKSYMBOL_0
 10
1.4671517054
 20
22.1980912917
 30
0.0
  0
INSERT
  5
1F2
330
1F
100
AcDbEntity
  8
0
  6
Continuous
 62
     7
370
     0
100
AcDbBlockReference
  2
SW_CENTERMARKSYMBOL_1
 10
25.8070217766
 20
22.1980912917
 30
0.0
  0
INSERT
  5
1FE
330
1F
100
AcDbEntity
  8
0
  6
Continuous
 62
     7
370
     0
100
AcDbBlockReference
  2
SW_CENTERMARKSYMBOL_2
 10
25.8070217766
 20
32.5333920237
 30
0.0
  0
INSERT
  5
20A
330
1F
100
AcDbEntity
  8
0
  6
Continuous
 62
     7
370
     0
100
AcDbBlockReference
  2
SW_CENTERMARKSYMBOL_3
 10
11.887086741
 20
22.1980912917
 30
0.0
  0
INSERT
  5
216
330
1F
100
AcDbEntity
  8
0
  6
Continuous
 62
     7
370
     0
100
AcDbBlockReference
  2
SW_CENTERMARKSYMBOL_4
 10
15.387086741
 20
22.1980912917
 30
0.0
  0
INSERT
  5
222
330
1F
100
AcDbEntity
  8
0
  6
Continuous
 62
     7
370
     0
100
AcDbBlockReference
  2
SW_CENTERMARKSYMBOL_5
 10
18.887086741
 20
22.1980912917
 30
0.0
  0
INSERT
  5
22E
330
1F
100
AcDbEntity
  8
0
  6
Continuous
 62
     7
370
     0
100
AcDbBlockReference
  2
SW_CENTERMARKSYMBOL_6
 10
22.387086741
 20
22.1980912917
 30
0.0
  0
INSERT
  5
23A
330
1F
100
AcDbEntity
  8
0
  6
Continuous
 62
     7
370
     0
100
AcDbBlockReference
  2
SW_CENTERMARKSYMBOL_7
 10
4.887086741
 20
22.1980912917
 30
0.0
  0
INSERT
  5
246
330
1F
100
AcDbEntity
  8
0
  6
Continuous
 62
     7
370
     0
100
AcDbBlockReference
  2
SW_CENTERMARKSYMBOL_8
 10
8.387086741
 20
22.1980912917
 30
0.0
  0
INSERT
  5
252
330
1F
100
AcDbEntity
  8
0
  6
Continuous
 62
     7
370
     0
100
AcDbBlockReference
  2
SW_CENTERMARKSYMBOL_9
 10
25.8070217766
 20
25.6157416577
 30
0.0
  0
INSERT
  5
25E
330
1F
100
AcDbEntity
  8
0
  6
Continuous
 62
     7
370
     0
100
AcDbBlockReference
  2
SW_CENTERMARKSYMBOL_10
 10
25.8070217766
 20
29.1157416577
 30
0.0
  0
INSERT
  5
26A
330
1F
100
AcDbEntity
  8
0
  6
Continuous
 62
     7
370
     0
100
AcDbBlockReference
  2
SW_CENTERMARKSYMBOL_11
 10
22.3070217766
 20
32.533392187
 30
0.0
  0
INSERT
  5
276
330
1F
100
AcDbEntity
  8
0
  6
Continuous
 62
     7
370
     0
100
AcDbBlockReference
  2
SW_CENTERMARKSYMBOL_12
 10
18.8070217486
 20
32.5333923504
 30
0.0
  0
INSERT
  5
282
330
1F
100
AcDbEntity
  8
0
  6
Continuous
 62
     7
370
     0
100
AcDbBlockReference
  2
SW_CENTERMARKSYMBOL_13
 10
15.3072433395
 20
32.505560136
 30
0.0
  0
INSERT
  5
28E
330
1F
100
AcDbEntity
  8
0
  6
Continuous
 62
     7
370
     0
100
AcDbBlockReference
  2
SW_CENTERMARKSYMBOL_14
 10
11.8151070036
 20
32.2867525915
 30
0.0
  0
INSERT
  5
29A
330
1F
100
AcDbEntity
  8
0
  6
Continuous
 62
     7
370
     0
100
AcDbBlockReference
  2
SW_CENTERMARKSYMBOL_15
 10
8.373957218
 20
31.6664125966
 30
0.0
  0
INSERT
  5
2A6
330
1F
100
AcDbEntity
  8
0
  6
Continuous
 62
     7
370
     0
100
AcDbBlockReference
  2
SW_CENTERMARKSYMBOL_16
 10
5.1264090942
 20
30.3860156193
 30
0.0
  0
INSERT
  5
2B2
330
1F
100
AcDbEntity
  8
0
  6
Continuous
 62
     7
370
     0
100
AcDbBlockReference
  2
SW_CENTERMARKSYMBOL_17
 10
2.4403223378
 20
28.1727626954
 30
0.0
  0
INSERT
  5
2BE
330
1F
100
AcDbEntity
  8
0
  6
Continuous
 62
     7
370
     0
100
AcDbBlockReference
  2
SW_CENTERMARKSYMBOL_18
 10
1.4671517054
 20
25.6157416577
 30
0.0
  0
LINE
  5
2BF
330
1F
100
AcDbEntity
  8
0
  6
Continuous
 62
     7
370
    15
100
AcDbLine
 10
1.2796517054
 20
19.221772
 30
0.0
 11
1.2796517054
 21
19.141772
 31
0.0
  0
SPLINE
  5
2C0
330
1F
100
AcDbEntity
  8
0
  6
Continuous
 62
     7
370
    15
100
AcDbSpline
210
0.0
220
0.0
230
1.0
 70
    24
 71
     3
 72
    22
 73
    18
 74
     0
 42
0.00000001
 43
0.00000001
 40
0.0
 40
0.0
 40
0.0
 40
0.0
 40
0.0357038387692534
 40
0.0712349151408109
 40
0.1067045446683607
 40
0.1422246206108123
 40
0.1779065616529143
 40
0.2138602816766387
 40
0.2501932281026241
 40
0.3758628391206435
 40
0.499840929167836
 40
0.6237258149105125
 40
0.749271168946967
 40
0.8127532316892907
 40
0.8752883938814331
 40
0.9374947124566642
 40
1.0
 40
1.0
 40
1.0
 40
1.0
 10
1.279651705393768
 20
19.22177199998144
 30
0.0
 10
1.279685008236775
 20
19.22177199998144
 30
0.0
 10
1.279751452778243
 20
19.22177199998144
 30
0.0
 10
1.280282787648848
 20
19.22177199998144
 30
0.0
 10
1.281130872780795
 20
19.22177199998144
 30
0.0
 10
1.282326254156823
 20
19.22177199998144
 30
0.0
 10
1.2838605311759
 20
19.22177199998144
 30
0.0
 10
1.285736431713411
 20
19.22177199998144
 30
0.0
 10
1.289754287781286
 20
19.22177199998144
 30
0.0
 10
1.297381998373621
 20
19.22177199998144
 30
0.0
 10
1.310969980952771
 20
19.22177199998144
 30
0.0
 10
1.327579757258789
 20
19.22177199998144
 30
0.0
 10
1.343549578458078
 20
19.22177199998144
 30
0.0
 10
1.357134131728552
 20
19.22177199998144
 30
0.0
 10
1.36761994276004
 20
19.22177199998144
 30
0.0
 10
1.37826652299064
 20
19.22177199998144
 30
0.0
 10
1.38542925866447
 20
19.22177199998144
 30
0.0
 10
1.389019212052321
 20
19.22177199998144
 30
0.0
  0
LINE
  5
2C1
330
1F
100
AcDbEntity
  8
0
  6
Continuous
 62
     7
370
    15
100
AcDbLine
 10
1.3890192121
 20
19.221772
 30
0.0
 11
1.3890192121
 21
19.141772
 31
0.0
  0
SPLINE
  5
2C2
330
1F
100
AcDbEntity
  8
0
  6
Continuous
 62
     7
370
    15
100
AcDbSpline
210
0.0
220
0.0
230
1.0
 70
    24
 71
     3
 72
    20
 73
    16
 74
     0
 42
0.00000001
 43
0.00000001
 40
0.0
 40
0.0
 40
0.0
 40
0.0
 40
0.1249999999999997
 40
0.1249999999999997
 40
0.2499999999999994
 40
0.2499999999999994
 40
0.3749999999999992
 40
0.3749999999999992
 40
0.4999999999999989
 40
0.4999999999999989
 40
0.6249999999999987
 40
0.6249999999999987
 40
0.7499999999999983
 40
0.7499999999999983
 40
1.0
 40
1.0
 40
1.0
 40
1.0
 10
1.279651705393768
 20
19.14177199998144
 30
0.0
 10
1.279651705393831
 20
19.14177199998144
 30
0.0
 10
1.28038193453248
 20
19.14177199998144
 30
0.0
 10
1.283176608267582
 20
19.14177199998144
 30
0.0
 10
1.285271660287219
 20
19.14177199998144
 30
0.0
 10
1.290714340027966
 20
19.14177199998144
 30
0.0
 10
1.294031069021297
 20
19.14177199998144
 30
0.0
 10
1.301869572820852
 20
19.14177199998144
 30
0.0
 10
1.306446372052632
 20
19.14177199998144
 30
0.0
 10
1.316505537731673
 20
19.14177199998144
 30
0.0
 10
1.322014954197739
 20
19.14177199998144
 30
0.0
 10
1.333960579642458
 20
19.14177199998144
 30
0.0
 10
1.340367649574704
 20
19.14177199998144
 30
0.0
 10
1.360157429630726
 20
19.14177199998144
 30
0.0
 10
1.374526164808406
 20
19.14177199998144
 30
0.0
 10
1.389019212052321
 20
19.14177199998144
 30
0.0
  0
LINE
  5
2C3
330
1F
100
AcDbEntity
  8
0
  6
Continuous
 62
     7
370
    15
100
AcDbLine
 10
25.8852986467
 20
19.221772
 30
0.0
 11
25.8852986467
 21
19.141772
 31
0.0
  0
SPLINE
  5
2C4
330
1F
100
AcDbEntity
  8
0
  6
Continuous
 62
     7
370
    15
100
AcDbSpline
210
0.0
220
0.0
230
1.0
 70
    24
 71
     3
 72
    22
 73
    18
 74
     0
 42
0.00000001
 43
0.00000001
 40
0.0
 40
0.0
 40
0.0
 40
0.0
 40
0.0358007298232292
 40
0.0714000247582353
 40
0.1069066048708672
 40
0.1424300415029092
 40
0.1780797505681073
 40
0.2139639929336259
 40
0.2501889267678004
 40
0.3759304974620214
 40
0.4998146741552311
 40
0.623656574639936
 40
0.7492512858569047
 40
0.8125869557983487
 40
0.8750795307270803
 40
0.9373434800763134
 40
1.0
 40
1.0
 40
1.0
 40
1.0
 10
25.88529864670085
 20
19.22177199998144
 30
0.0
 10
25.8873368351119
 20
19.22177199998144
 30
0.0
 10
25.89140174394838
 20
19.22177199998144
 30
0.0
 10
25.89746974801874
 20
19.22177199998144
 30
0.0
 10
25.90348491999287
 20
19.22177199998144
 30
0.0
 10
25.90944713027559
 20
19.22177199998144
 30
0.0
 10
25.91535605574589
 20
19.22177199998144
 30
0.0
 10
25.9212121425357
 20
19.22177199998144
 30
0.0
 10
25.93176306971305
 20
19.22177199998144
 30
0.0
 10
25.94632847345894
 20
19.22177199998144
 30
0.0
 10
25.96298494312643
 20
19.22177199998144
 30
0.0
 10
25.97665396288522
 20
19.22177199998144
 30
0.0
 10
25.98505505638412
 20
19.22177199998144
 30
0.0
 10
25.98994329757819
 20
19.22177199998144
 30
0.0
 10
25.9925739222935
 20
19.22177199998144
 30
0.0
 10
25.99421806971255
 20
19.22177199998144
 30
0.0
 10
25.9944203291138
 20
19.22177199998144
 30
0.0
 10
25.99452177662099
 20
19.22177199998144
 30
0.0
  0
LINE
  5
2C5
330
1F
100
AcDbEntity
  8
0
  6
Continuous
 62
     7
370
    15
100
AcDbLine
 10
25.9945217766
 20
19.221772
 30
0.0
 11
25.9945217766
 21
19.141772
 31
0.0
  0
SPLINE
  5
2C6
330
1F
100
AcDbEntity
  8
0
  6
Continuous
 62
     7
370
    15
100
AcDbSpline
210
0.0
220
0.0
230
1.0
 70
    24
 71
     3
 72
    20
 73
    16
 74
     0
 42
0.00000001
 43
0.00000001
 40
0.0
 40
0.0
 40
0.0
 40
0.0
 40
0.125
 40
0.125
 40
0.25
 40
0.25
 40
0.375
 40
0.375
 40
0.5
 40
0.5
 40
0.625
 40
0.625
 40
0.75
 40
0.75
 40
1.0
 40
1.0
 40
1.0
 40
1.0
 10
25.88529864670085
 20
19.14177199998144
 30
0.0
 10
25.89248510611337
 20
19.14177199998144
 30
0.0
 10
25.8995493061394
 20
19.14177199998144
 30
0.0
 10
25.9134517281655
 20
19.14177199998144
 30
0.0
 10
25.9203560400046
 20
19.14177199998144
 30
0.0
 10
25.93358421112862
 20
19.14177199998144
 30
0.0
 10
25.9398701211855
 20
19.14177199998144
 30
0.0
 10
25.95177530615888
 20
19.14177199998144
 30
0.0
 10
25.95743887600906
 20
19.14177199998144
 30
0.0
 10
25.96754541932502
 20
19.14177199998144
 30
0.0
 10
25.97204595099515
 20
19.14177199998144
 30
0.0
 10
25.9799817427286
 20
19.14177199998144
 30
0.0
 10
25.98338164143604
 20
19.14177199998144
 30
0.0
 10
25.99156077549009
 20
19.14177199998144
 30
0.0
 10
25.99452177662099
 20
19.14177199998144
 30
0.0
 10
25.99452177662099
 20
19.14177199998144
 30
0.0
  0
LINE
  5
2C7
330
1F
100
AcDbEntity
  8
0
  6
Continuous
 62
     7
370
    15
100
AcDbLine
 10
1.3890192121
 20
19.221772
 30
0.0
 11
25.8852986467
 21
19.221772
 31
0.0
  0
LINE
  5
2C8
330
1F
100
AcDbEntity
  8
0
  6
Continuous
 62
     7
370
    15
100
AcDbLine
 10
1.3890192121
 20
19.141772
 30
0.0
 11
25.8852986467
 21
19.141772
 31
0.0
  0
DIMENSION
  5
2C9
330
1F
100
AcDbEntity
  8
0
  6
Continuous
 62
     7
370
     0
100
AcDbDimension
  2
*D44
 10
26.4830952845
 20
19.221772
 30
0.0
 11
26.4830952845
 21
18.8098408811
 31
0.0
 70
   160
 71
     2
 42
-1.0
  3
SLDDIMSTYLE4
100
AcDbAlignedDimension
 13
25.8852986467
 23
19.141772
 33
0.0
 14
25.8852986467
 24
19.221772
 34
0.0
 50
90.0
100
AcDbRotatedDimension
  0
ARC
  5
2D6
330
1F
100
AcDbEntity
  8
0
  6
Continuous
 62
     7
370
    15
100
AcDbCircle
 10
40.4143461943
 20
70.8985712475
 30
0.0
 40
39.51963921785666
100
AcDbArc
 50
263.569771387
 51
263.6618296049
  0
SPLINE
  5
2D7
330
1F
100
AcDbEntity
  8
0
  6
Continuous
 62
     7
370
    15
100
AcDbSpline
210
0.0
220
0.0
230
1.0
 70
     8
 71
     3
 72
    15
 73
    11
 74
     0
 42
0.00000001
 43
0.00000001
 40
0.0
 40
0.0
 40
0.0
 40
0.0
 40
0.0948961613436235
 40
0.1923424892229628
 40
0.292340774268206
 40
0.3948926734325783
 40
0.4999997229005376
 40
0.6148430343084671
 40
0.7499996305596677
 40
1.0
 40
1.0
 40
1.0
 40
1.0
 10
36.67006570492879
 20
31.5467008843575
 30
0.0
 10
36.6505404677496
 20
31.54935926777349
 30
0.0
 10
36.61096528716758
 20
31.55474747395907
 30
0.0
 10
36.5507695412626
 20
31.5625967003101
 30
0.0
 10
36.4889671943545
 20
31.57041486091587
 30
0.0
 10
36.42555459018118
 20
31.57817534801398
 30
0.0
 10
36.35905228859703
 20
31.58606167409395
 30
0.0
 10
36.28579464525595
 20
31.59447068952226
 30
0.0
 10
36.18261364745663
 20
31.60602528594562
 30
0.0
 10
36.10311764369867
 20
31.6147970495383
 30
0.0
 10
36.05151782316098
 20
31.62049068702678
 30
0.0
  0
SPLINE
  5
2D8
330
1F
100
AcDbEntity
  8
0
  6
Continuous
 62
     7
370
    15
100
AcDbSpline
210
0.0
220
0.0
230
1.0
 70
     8
 71
     3
 72
    14
 73
    10
 74
     0
 42
0.00000001
 43
0.00000001
 40
0.0
 40
0.0
 40
0.0
 40
0.0
 40
0.1405434443163989
 40
0.2818544614922701
 40
0.4239352831962844
 40
0.5667881050191159
 40
0.7104150871472988
 40
0.8548183550244568
 40
1.0
 40
1.0
 40
1.0
 40
1.0
 10
37.37210150116237
 20
31.44056599249888
 30
0.0
 10
37.33927743033214
 20
31.4459556960029
 30
0.0
 10
37.27345002121434
 20
31.4567645386787
 30
0.0
 10
37.17435791243382
 20
31.47251895057983
 30
0.0
 10
37.07466882069091
 20
31.48799381800391
 30
0.0
 10
36.97437700853001
 20
31.50315485865287
 30
0.0
 10
36.87348286008987
 20
31.51800286020008
 30
0.0
 10
36.77199065577372
 20
31.53256949064813
 30
0.0
 10
36.70410151509309
 20
31.54198198648567
 30
0.0
 10
36.67006570492987
 20
31.54670088435766
 30
0.0
  0
SPLINE
  5
2D9
330
1F
100
AcDbEntity
  8
0
  6
Continuous
 62
     7
370
    15
100
AcDbSpline
210
0.0
220
0.0
230
1.0
 70
     8
 71
     3
 72
    20
 73
    16
 74
     0
 42
0.00000001
 43
0.00000001
 40
0.0
 40
0.0
 40
0.0
 40
0.0
 40
0.0420409283461501
 40
0.0837232515265179
 40
0.1252023499110562
 40
0.1666358902793544
 40
0.2081820580892068
 40
0.2499977606361268
 40
0.3744767283494604
 40
0.4997232955273019
 40
0.6240589557729679
 40
0.7495862647600475
 40
0.8326587294186522
 40
0.9157911077075641
 40
1.0
 40
1.0
 40
1.0
 40
1.0
 10
37.46774881674798
 20
31.33180709046183
 30
0.0
 10
37.46770958152767
 20
31.33401483594206
 30
0.0
 10
37.46763144575979
 20
31.33841149504118
 30
0.0
 10
37.46701196704112
 20
31.34496233481439
 30
0.0
 10
37.46602332539477
 20
31.35143260149777
 30
0.0
 10
37.46463053602452
 20
31.35782185725994
 30
0.0
 10
37.46284248456395
 20
31.36413039437609
 30
0.0
 10
37.45922908882268
 20
31.3744320585658
 30
0.0
 10
37.45243058444227
 20
31.38825511872082
 30
0.0
 10
37.44059203875008
 20
31.40405778005693
 30
0.0
 10
37.42616219156592
 20
31.41760665765919
 30
0.0
 10
37.4114312725216
 20
31.42719619748304
 30
0.0
 10
37.39753716913395
 20
31.43369497950904
 30
0.0
 10
37.38507219974601
 20
31.43800610338523
 30
0.0
 10
37.37644356997639
 20
31.43970904377104
 30
0.0
 10
37.37210150090774
 20
31.44056599151042
 30
0.0
  0
LINE
  5
2DA
330
1F
100
AcDbEntity
  8
0
  6
Continuous
 62
     7
370
    15
100
AcDbLine
 10
37.4677488156
 20
21.2632544528
 30
0.0
 11
37.4677488167
 21
31.3318070905
 31
0.0
  0
ARC
  5
2DB
330
1F
100
AcDbEntity
  8
0
  6
Continuous
 62
     7
370
    15
100
AcDbCircle
 10
37.3587456365
 20
21.2632544528
 30
0.0
 40
0.1090031791025031
100
AcDbArc
 50
269.1365240241
 51
360.0
  0
LINE
  5
2DC
330
1F
100
AcDbEntity
  8
0
  6
Continuous
 62
     7
370
    15
100
AcDbLine
 10
30.4448602193
 20
21.258442485
 30
0.0
 11
37.3571029664
 21
21.1542636519
 31
0.0
  0
SPLINE
  5
2DD
330
1F
100
AcDbEntity
  8
0
  6
Continuous
 62
     7
370
    15
100
AcDbSpline
210
0.0
220
0.0
230
1.0
 70
     8
 71
     3
 72
    21
 73
    17
 74
     0
 42
0.00000001
 43
0.00000001
 40
0.0
 40
0.0
 40
0.0
 40
0.0
 40
0.0361962572581015
 40
0.072019097695714
 40
0.1076025925437196
 40
0.1430835263706742
 40
0.1785998687487678
 40
0.2142891785999649
 40
0.2502870320143971
 40
0.3741957551486584
 40
0.4998241273861123
 40
0.6234873144247665
 40
0.7495222341350427
 40
0.8323468304749979
 40
0.91548381869544
 40
1.0
 40
1.0
 40
1.0
 40
1.0
 10
30.33709720713204
 20
21.35858867878154
 30
0.0
 10
30.33713152176245
 20
21.35661917986866
 30
0.0
 10
30.33719979701816
 20
21.35270050027681
 30
0.0
 10
30.33774905147249
 20
21.34686688182305
 30
0.0
 10
30.33862691898686
 20
21.34111550006812
 30
0.0
 10
30.33986456176489
 20
21.33544656530664
 30
0.0
 10
30.34145348707749
 20
21.32986048489852
 30
0.0
 10
30.34339649281422
 20
21.32435694981909
 30
0.0
 10
30.34754573769704
 20
21.31455465620563
 30
0.0
 10
30.35551895472113
 20
21.30106949601687
 30
0.0
 10
30.36942387504946
 20
21.2860843094713
 30
0.0
 10
30.38601170917543
 20
21.27397313368719
 30
0.0
 10
30.40248372369494
 20
21.26622558093863
 30
0.0
 10
30.41770830169016
 20
21.26161206967965
 30
0.0
 10
30.43114201924885
 20
21.25907374601309
 30
0.0
 10
30.44026247624062
 20
21.2586540562008
 30
0.0
 10
30.44486021930076
 20
21.25844248501268
 30
0.0
  0
LINE
  5
2DE
330
1F
100
AcDbEntity
  8
0
  6
Continuous
 62
     7
370
    15
100
AcDbLine
 10
30.3370972071
 20
31.7698449302
 30
0.0
 11
30.3370972071
 21
21.3585886788
 31
0.0
  0
SPLINE
  5
2DF
330
1F
100
AcDbEntity
  8
0
  6
Continuous
 62
     7
370
    15
100
AcDbSpline
210
0.0
220
0.0
230
1.0
 70
     8
 71
     3
 72
    21
 73
    17
 74
     0
 42
0.00000001
 43
0.00000001
 40
0.0
 40
0.0
 40
0.0
 40
0.0
 40
0.0422225487644958
 40
0.0840020820288415
 40
0.1254698393426965
 40
0.1667600332722163
 40
0.208008609660666
 40
0.2493519248960281
 40
0.3754462245348718
 40
0.4990160721780275
 40
0.6252028979936072
 40
0.7489322882889148
 40
0.8122319283806799
 40
0.8746520592112297
 40
0.9369783551224378
 40
1.0
 40
1.0
 40
1.0
 40
1.0
 10
30.45021873108358
 20
31.87241292349639
 30
0.0
 10
30.44783203057714
 20
31.87237722462095
 30
0.0
 10
30.44308367175969
 20
31.87230620143664
 30
0.0
 10
30.4360123473846
 20
31.87170394792416
 30
0.0
 10
30.4290372899871
 20
31.87073708763328
 30
0.0
 10
30.42215891804737
 20
31.86937113722494
 30
0.0
 10
30.41537657423233
 20
31.86761512925095
 30
0.0
 10
30.40414480587159
 20
31.86400503983155
 30
0.0
 10
30.38906715221616
 20
31.85717712947548
 30
0.0
 10
30.37163184811354
 20
31.84483080606336
 30
0.0
 10
30.35692379028082
 20
31.82948626666779
 30
0.0
 10
30.34759501916306
 20
31.81427145503766
 30
0.0
 10
30.34219869225271
 20
31.80121957211496
 30
0.0
 10
30.33926702029392
 20
31.79098420671605
 30
0.0
 10
30.33743665078406
 20
31.78049692559821
 30
0.0
 10
30.33721077377521
 20
31.77340870225835
 30
0.0
 10
30.3370972087613
 20
31.76984493015866
 30
0.0
  0
SPLINE
  5
2E0
330
1F
100
AcDbEntity
  8
0
  6
Continuous
 62
     7
370
    15
100
AcDbSpline
210
0.0
220
0.0
230
1.0
 70
     8
 71
     3
 72
    26
 73
    22
 74
     0
 42
0.00000001
 43
0.00000001
 40
0.0
 40
0.0
 40
0.0
 40
0.0
 40
0.0200597339803919
 40
0.0402590897268206
 40
0.0605983412381319
 40
0.0810777568980764
 40
0.1016975996173607
 40
0.1224581269715996
 40
0.1433595913352988
 40
0.1644022400119929
 40
0.1855863153606443
 40
0.2069120549184364
 40
0.2283796915200534
 40
0.2499894534135626
 40
0.3720983458563277
 40
0.4999928830526941
 40
0.6214438354728373
 40
0.7499998725611141
 40
0.8749974105961071
 40
0.9316384092576087
 40
1.0
 40
1.0
 40
1.0
 40
1.0
 10
35.98841464318987
 20
31.62755122234756
 30
0.0
 10
35.95155596199202
 20
31.63166447704698
 30
0.0
 10
35.87758205211829
 20
31.63991961593243
 30
0.0
 10
35.76617820224276
 20
31.65181972598796
 30
0.0
 10
35.65396308905731
 20
31.66342238861011
 30
0.0
 10
35.54093237207258
 20
31.67468908653491
 30
0.0
 10
35.4270872256545
 20
31.6856302475286
 30
0.0
 10
35.31242733125181
 20
31.69624304874393
 30
0.0
 10
35.19695277414744
 20
31.70652825371477
 30
0.0
 10
35.08066353160368
 20
31.7164856579265
 30
0.0
 10
34.96355960532018
 20
31.72611530835717
 30
0.0
 10
34.84564100857216
 20
31.73541722362874
 30
0.0
 10
34.7269076830189
 20
31.74439128029472
 30
0.0
 10
34.4222985067919
 20
31.76642310793926
 30
0.0
 10
33.92105018605298
 20
31.79732266449941
 30
0.0
 10
33.23497095744755
 20
31.8285454840624
 30
0.0
 10
32.53661722811118
 20
31.85057258358864
 30
0.0
 10
31.84341309842709
 20
31.86436638921919
 30
0.0
 10
31.26992896483838
 20
31.86994498463828
 30
0.0
 10
30.80771976249093
 20
31.87183806661785
 30
0.0
 10
30.57660894036433
 20
31.87220968919105
 30
0.0
 10
30.45021873105988
 20
31.87241292266311
 30
0.0
  0
CIRCLE
  5
2E1
330
1F
100
AcDbEntity
  8
0
  6
Continuous
 62
     7
370
    15
100
AcDbCircle
 10
37.2802488156
 20
21.3429432645
 30
0.0
 40
0.0750000000000028
  0
CIRCLE
  5
2E2
330
1F
100
AcDbEntity
  8
0
  6
Continuous
 62
     7
370
    15
100
AcDbCircle
 10
37.2802488156
 20
31.2662763329
 30
0.0
 40
0.0750000000000099
  0
CIRCLE
  5
2E3
330
1F
100
AcDbEntity
  8
0
  6
Continuous
 62
     7
370
    15
100
AcDbCircle
 10
30.5245972088
 20
21.4447620123
 30
0.0
 40
0.0750000000000028
  0
CIRCLE
  5
2E4
330
1F
100
AcDbEntity
  8
0
  6
Continuous
 62
     7
370
    15
100
AcDbCircle
 10
33.9024230122
 20
21.3938526384
 30
0.0
 40
0.0750000000000028
  0
CIRCLE
  5
2E5
330
1F
100
AcDbEntity
  8
0
  6
Continuous
 62
     7
370
    15
100
AcDbCircle
 10
30.5245972088
 20
28.3145558199
 30
0.0
 40
0.0750000000000064
  0
CIRCLE
  5
2E6
330
1F
100
AcDbEntity
  8
0
  6
Continuous
 62
     7
370
    15
100
AcDbCircle
 10
37.2802488156
 20
24.5546097987
 30
0.0
 40
0.0750000000000028
  0
CIRCLE
  5
2E7
330
1F
100
AcDbEntity
  8
0
  6
Continuous
 62
     7
370
    15
100
AcDbCircle
 10
37.2802488156
 20
28.0546097987
 30
0.0
 40
0.0750000000000028
  0
CIRCLE
  5
2E8
330
1F
100
AcDbEntity
  8
0
  6
Continuous
 62
     7
370
    15
100
AcDbCircle
 10
30.5245972088
 20
24.8145558199
 30
0.0
 40
0.0750000000000064
  0
CIRCLE
  5
2E9
330
1F
100
AcDbEntity
  8
0
  6
Continuous
 62
     7
370
    15
100
AcDbCircle
 10
30.5245972088
 20
31.6843496275
 30
0.0
 40
0.0750000000000064
  0
CIRCLE
  5
2EA
330
1F
100
AcDbEntity
  8
0
  6
Continuous
 62
     7
370
    15
100
AcDbCircle
 10
33.9024230122
 20
31.5987196348
 30
0.0
 40
0.074999999999207
  0
LINE
  5
2EB
330
1F
100
AcDbEntity
  8
0
  6
CENTERX2
 62
     7
370
     0
100
AcDbLine
 10
30.4502187311
 20
31.8724129235
 30
0.0
 11
37.4677488156
 21
31.8724129235
 31
0.0
  0
DIMENSION
  5
2EC
330
1F
100
AcDbEntity
  8
0
  6
Continuous
 62
     7
370
     0
100
AcDbDimension
  2
*D45
 10
37.4677488156
 20
21.2632544528
 30
0.0
 11
37.4677488156
 21
19.6404681155
 31
0.0
 70
   102
 71
     5
 42
-1.0
  3
SLDDIMSTYLE0
100
AcDbOrdinateDimension
 13
37.4677488156
 23
21.2632544528
 33
0.0
 14
37.4677488156
 24
19.8106685966
 34
0.0
  0
DIMENSION
  5
2F5
330
1F
100
AcDbEntity
  8
0
  6
Continuous
 62
     7
370
     0
100
AcDbDimension
  2
*D46
 10
37.4677488156
 20
21.2632544528
 30
0.0
 11
36.5259861173
 21
19.2635164316
 31
0.0
 70
   102
 71
     5
 42
-1.0
  3
SLDDIMSTYLE1
100
AcDbOrdinateDimension
 13
37.2802488156
 23
21.3429432645
 33
0.0
 14
36.5259861173
 24
19.8106685966
 34
0.0
  0
DIMENSION
  5
2FF
330
1F
100
AcDbEntity
  8
0
  6
Continuous
 62
     7
370
     0
100
AcDbDimension
  2
*D47
 10
37.4677488156
 20
21.2632544528
 30
0.0
 11
33.9024230122
 21
19.2635164316
 31
0.0
 70
   102
 71
     5
 42
-1.0
  3
SLDDIMSTYLE1
100
AcDbOrdinateDimension
 13
33.9024230122
 23
21.3938526384
 33
0.0
 14
33.9024230122
 24
19.8106685966
 34
0.0
  0
DIMENSION
  5
307
330
1F
100
AcDbEntity
  8
0
  6
Continuous
 62
     7
370
     0
100
AcDbDimension
  2
*D48
 10
37.4677488156
 20
21.2632544528
 30
0.0
 11
31.3701445718
 21
19.2635164316
 31
0.0
 70
   102
 71
     5
 42
-1.0
  3
SLDDIMSTYLE1
100
AcDbOrdinateDimension
 13
30.5245972088
 23
21.4447620123
 33
0.0
 14
31.3701445718
 24
19.8106685966
 34
0.0
  0
DIMENSION
  5
311
330
1F
100
AcDbEntity
  8
0
  6
Continuous
 62
     7
370
     0
100
AcDbDimension
  2
*D49
 10
37.4677488156
 20
21.2632544528
 30
0.0
 11
30.3370972088
 21
19.2635164316
 31
0.0
 70
   102
 71
     5
 42
-1.0
  3
SLDDIMSTYLE1
100
AcDbOrdinateDimension
 13
30.3370972088
 23
21.3585886788
 33
0.0
 14
30.3370972088
 24
19.8106685966
 34
0.0
  0
DIMENSION
  5
319
330
1F
100
AcDbEntity
  8
0
  6
Continuous
 62
     7
370
     0
100
AcDbDimension
  2
*D50
 10
37.3571029664
 20
21.1542636519
 30
0.0
 11
38.5192820016
 21
21.1542636519
 31
0.0
 70
    38
 71
     5
 42
-1.0
  3
SLDDIMSTYLE0
100
AcDbOrdinateDimension
 13
37.3571029664
 23
21.1542636519
 33
0.0
 14
38.3490815205
 24
21.1542636519
 34
0.0
  0
DIMENSION
  5
322
330
1F
100
AcDbEntity
  8
0
  6
Continuous
 62
     7
370
     0
100
AcDbDimension
  2
*D51
 10
37.3571029664
 20
21.1542636519
 30
0.0
 11
38.8962336854
 21
21.6155612968
 31
0.0
 70
    38
 71
     5
 42
-1.0
  3
SLDDIMSTYLE1
100
AcDbOrdinateDimension
 13
37.2802488156
 23
21.3429432645
 33
0.0
 14
38.3490815205
 24
21.6155612968
 34
0.0
  0
DIMENSION
  5
32C
330
1F
100
AcDbEntity
  8
0
  6
Continuous
 62
     7
370
     0
100
AcDbDimension
  2
*D52
 10
37.3571029664
 20
21.1542636519
 30
0.0
 11
38.8962336854
 21
24.4542178539
 31
0.0
 70
    38
 71
     5
 42
-1.0
  3
SLDDIMSTYLE2
100
AcDbOrdinateDimension
 13
37.2802488156
 23
24.5546097987
 33
0.0
 14
38.3490815205
 24
24.4542178539
 34
0.0
  0
DIMENSION
  5
336
330
1F
100
AcDbEntity
  8
0
  6
Continuous
 62
     7
370
     0
100
AcDbDimension
  2
*D53
 10
37.3571029664
 20
21.1542636519
 30
0.0
 11
38.8962336854
 21
25.7134564134
 31
0.0
 70
    38
 71
     5
 42
-1.0
  3
SLDDIMSTYLE2
100
AcDbOrdinateDimension
 13
30.5245972088
 23
24.8145558199
 33
0.0
 14
38.3490815205
 24
25.7134564134
 34
0.0
  0
DIMENSION
  5
340
330
1F
100
AcDbEntity
  8
0
  6
Continuous
 62
     7
370
     0
100
AcDbDimension
  2
*D54
 10
37.3571029664
 20
21.1542636519
 30
0.0
 11
38.8962336854
 21
27.9542178539
 31
0.0
 70
    38
 71
     5
 42
-1.0
  3
SLDDIMSTYLE2
100
AcDbOrdinateDimension
 13
37.2802488156
 23
28.0546097987
 33
0.0
 14
38.3490815205
 24
27.9542178539
 34
0.0
  0
DIMENSION
  5
34A
330
1F
100
AcDbEntity
  8
0
  6
Continuous
 62
     7
370
     0
100
AcDbDimension
  2
*D55
 10
37.3571029664
 20
21.1542636519
 30
0.0
 11
38.8962336854
 21
28.7902816932
 31
0.0
 70
    38
 71
     5
 42
-1.0
  3
SLDDIMSTYLE2
100
AcDbOrdinateDimension
 13
30.5245972088
 23
28.3145558199
 33
0.0
 14
38.3490815205
 24
28.7902816932
 34
0.0
  0
DIMENSION
  5
354
330
1F
100
AcDbEntity
  8
0
  6
Continuous
 62
     7
370
     0
100
AcDbDimension
  2
*D56
 10
37.3571029664
 20
21.1542636519
 30
0.0
 11
39.0039341665
 21
31.2662763329
 31
0.0
 70
    38
 71
     5
 42
-1.0
  3
SLDDIMSTYLE1
100
AcDbOrdinateDimension
 13
37.2802488156
 23
31.2662763329
 33
0.0
 14
38.3490815205
 24
31.2662763329
 34
0.0
  0
DIMENSION
  5
35C
330
1F
100
AcDbEntity
  8
0
  6
Continuous
 62
     7
370
     0
100
AcDbDimension
  2
*D57
 10
37.3571029664
 20
21.1542636519
 30
0.0
 11
39.0039341665
 21
31.8724129235
 31
0.0
 70
    38
 71
     5
 42
-1.0
  3
SLDDIMSTYLE1
100
AcDbOrdinateDimension
 13
37.4677488156
 23
31.8724129235
 33
0.0
 14
38.3490815205
 24
31.8724129235
 34
0.0
  0
DIMENSION
  5
364
330
1F
100
AcDbEntity
  8
0
  6
Continuous
 62
     7
370
     0
100
AcDbDimension
  2
*D58
 10
37.2272441092
 20
21.3960045602
 30
0.0
 11
40.1240987707
 21
19.5582423639
 31
0.0
 70
   163
  1
<>
 71
     1
 42
-1.0
  3
SLDDIMSTYLE3
100
AcDbDiametricDimension
 15
37.333253522
 25
21.2898819688
 35
0.0
 40
0.0
  0
DIMENSION
  5
36E
330
1F
100
AcDbEntity
  8
0
  6
Continuous
 62
     7
370
     0
100
AcDbDimension
  2
*D59
 10
30.4448602193
 20
21.258442485
 30
0.0
 11
31.0491728887
 21
22.1005660297
 31
0.0
 70
   162
 71
     1
 42
-1.0
  3
SLDDIMSTYLE5
100
AcDb2LineAngularDimension
 13
30.3370972071
 23
21.3585886788
 33
0.0
 14
30.3370972071
 24
31.7698449302
 34
0.0
 15
37.3571029664
 25
21.1542636519
 35
0.0
 16
31.3941440417
 26
21.5701359532
 36
0.0
  0
MTEXT
  5
378
330
1F
100
AcDbEntity
  8
0
  6
Continuous
 62
     7
370
     0
100
AcDbMText
 10
31.6959419281
 20
26.7669554203
 30
0.0
 40
0.375
 41
0.0
 71
     1
 72
     1
  1
10in Center Insert
  7
SLDTEXTSTYLE0
 73
     1
 44
1.0
  0
INSERT
  5
380
330
1F
100
AcDbEntity
  8
0
  6
Continuous
 62
     7
370
     0
100
AcDbBlockReference
  2
SW_NOTE_4
 10
29.1022153347
 20
27.6515632319
 30
0.0
  0
LEADER
  5
382
330
1F
100
AcDbEntity
  8
0
  6
Continuous
 62
     7
370
     0
100
AcDbLeader
  3
SLDDIMSTYLE6
 76
     2
 10
30.3370972071
 20
26.8421713545
 30
0.0
 10
29.1022153347
 20
27.6515632319
 30
0.0
  0
LINE
  5
383
330
1F
100
AcDbEntity
  8
0
  6
Continuous
 62
     7
370
    15
100
AcDbLine
 10
40.3655123685
 20
31.3318070905
 30
0.0
 11
40.4455123685
 21
31.3318070905
 31
0.0
  0
SPLINE
  5
384
330
1F
100
AcDbEntity
  8
0
  6
Continuous
 62
     7
370
    15
100
AcDbSpline
210
0.0
220
0.0
230
1.0
 70
    24
 71
     3
 72
    20
 73
    16
 74
     0
 42
0.00000001
 43
0.00000001
 40
0.0
 40
0.0
 40
0.0
 40
0.0
 40
0.0420409283461501
 40
0.0837232515265179
 40
0.1252023499110562
 40
0.1666358902793544
 40
0.2081820580892068
 40
0.2499977606361268
 40
0.3744767283494604
 40
0.4997232955273019
 40
0.6240589557729679
 40
0.7495862647600475
 40
0.8326587294186522
 40
0.9157911077075641
 40
1.0
 40
1.0
 40
1.0
 40
1.0
 10
40.36551236853354
 20
31.33180709046183
 30
0.0
 10
40.36551236853354
 20
31.33401483594206
 30
0.0
 10
40.36551236853354
 20
31.33841149504118
 30
0.0
 10
40.36551236853354
 20
31.34496233481439
 30
0.0
 10
40.36551236853354
 20
31.35143260149777
 30
0.0
 10
40.36551236853354
 20
31.35782185725994
 30
0.0
 10
40.36551236853354
 20
31.36413039437609
 30
0.0
 10
40.36551236853354
 20
31.3744320585658
 30
0.0
 10
40.36551236853354
 20
31.38825511872082
 30
0.0
 10
40.36551236853354
 20
31.40405778005693
 30
0.0
 10
40.36551236853353
 20
31.41760665765919
 30
0.0
 10
40.36551236853353
 20
31.42719619748304
 30
0.0
 10
40.36551236853353
 20
31.43369497950904
 30
0.0
 10
40.36551236853353
 20
31.43800610338523
 30
0.0
 10
40.36551236853353
 20
31.43970904377104
 30
0.0
 10
40.36551236853353
 20
31.44056599151042
 30
0.0
  0
LINE
  5
385
330
1F
100
AcDbEntity
  8
0
  6
Continuous
 62
     7
370
    15
100
AcDbLine
 10
40.3655123685
 20
31.4405659915
 30
0.0
 11
40.4455123685
 21
31.4405659915
 31
0.0
  0
SPLINE
  5
386
330
1F
100
AcDbEntity
  8
0
  6
Continuous
 62
     7
370
    15
100
AcDbSpline
210
0.0
220
0.0
230
1.0
 70
    24
 71
     3
 72
    22
 73
    18
 74
     0
 42
0.00000001
 43
0.00000001
 40
0.0
 40
0.0
 40
0.0
 40
0.0
 40
0.125
 40
0.125
 40
0.25
 40
0.25
 40
0.375
 40
0.375
 40
0.5
 40
0.5
 40
0.625
 40
0.625
 40
0.75
 40
0.75
 40
0.875
 40
0.875
 40
1.0
 40
1.0
 40
1.0
 40
1.0
 10
40.44551236853354
 20
31.33180709046183
 30
0.0
 10
40.44551236853353
 20
31.33842977543582
 30
0.0
 10
40.44551236853354
 20
31.34495265508153
 30
0.0
 10
40.44551236853354
 20
31.35779356062901
 30
0.0
 10
40.44551236853354
 20
31.3641570699116
 30
0.0
 10
40.44551236853354
 20
31.37646736800998
 30
0.0
 10
40.44551236853354
 20
31.38233482495259
 30
0.0
 10
40.44551236853354
 20
31.39348406399803
 30
0.0
 10
40.44551236853354
 20
31.3988119009866
 30
0.0
 10
40.44551236853354
 20
31.40861051241601
 30
0.0
 10
40.44551236853354
 20
31.41308754593935
 30
0.0
 10
40.44551236853354
 20
31.42118125524398
 30
0.0
 10
40.44551236853354
 20
31.42481620066678
 30
0.0
 10
40.44551236853354
 20
31.43103586254036
 30
0.0
 10
40.44551236853354
 20
31.43365253967198
 30
0.0
 10
40.44551236853354
 20
31.43787671525771
 30
0.0
 10
40.44551236853354
 20
31.43948269850409
 30
0.0
 10
40.44551236853354
 20
31.44056599151041
 30
0.0
  0
LINE
  5
387
330
1F
100
AcDbEntity
  8
0
  6
Continuous
 62
     7
370
    15
100
AcDbLine
 10
40.3655123685
 20
21.2632544528
 30
0.0
 11
40.4455123685
 21
21.2632544528
 31
0.0
  0
LINE
  5
388
330
1F
100
AcDbEntity
  8
0
  6
Continuous
 62
     7
370
    15
100
AcDbLine
 10
40.3655123685
 20
21.2632544528
 30
0.0
 11
40.3655123685
 21
31.3318070905
 31
0.0
  0
LINE
  5
389
330
1F
100
AcDbEntity
  8
0
  6
Continuous
 62
     7
370
    15
100
AcDbLine
 10
40.4455123685
 20
21.2632544528
 30
0.0
 11
40.4455123685
 21
31.3318070905
 31
0.0
  0
LINE
  5
38A
330
1F
100
AcDbEntity
  8
0
  6
Continuous
 62
     7
370
    15
100
AcDbLine
 10
40.3655123685
 20
21.1542636519
 30
0.0
 11
40.4455123685
 21
21.1542636519
 31
0.0
  0
LINE
  5
38B
330
1F
100
AcDbEntity
  8
0
  6
Continuous
 62
     7
370
    15
100
AcDbLine
 10
40.3655123685
 20
21.1542636519
 30
0.0
 11
40.3655123685
 21
21.2632544528
 31
0.0
  0
LINE
  5
38C
330
1F
100
AcDbEntity
  8
0
  6
Continuous
 62
     7
370
    15
100
AcDbLine
 10
40.4455123685
 20
21.1542636519
 30
0.0
 11
40.4455123685
 21
21.2632544528
 31
0.0
  0
LINE
  5
38D
330
1F
100
AcDbEntity
  8
0
  6
Continuous
 62
     7
370
    15
100
AcDbLine
 10
40.3655123685
 20
31.5467008844
 30
0.0
 11
40.4455123685
 21
31.5467008844
 31
0.0
  0
SPLINE
  5
38E
330
1F
100
AcDbEntity
  8
0
  6
Continuous
 62
     7
370
    15
100
AcDbSpline
210
0.0
220
0.0
230
1.0
 70
    24
 71
     3
 72
     8
 73
     4
 74
     0
 42
0.00000001
 43
0.00000001
 40
0.0
 40
0.0
 40
0.0
 40
0.0
 40
1.0
 40
1.0
 40
1.0
 40
1.0
 10
40.44551236853354
 20
31.44056599249888
 30
0.0
 10
40.44551236853354
 20
31.47919113530114
 30
0.0
 10
40.44551236853354
 20
31.51444869192268
 30
0.0
 10
40.44551236853354
 20
31.54670088435765
 30
0.0
  0
SPLINE
  5
38F
330
1F
100
AcDbEntity
  8
0
  6
Continuous
 62
     7
370
    15
100
AcDbSpline
210
0.0
220
0.0
230
1.0
 70
    24
 71
     3
 72
    14
 73
    10
 74
     0
 42
0.00000001
 43
0.00000001
 40
0.0
 40
0.0
 40
0.0
 40
0.0
 40
0.1405434443163989
 40
0.2818544614922701
 40
0.4239352831962844
 40
0.5667881050191159
 40
0.7104150871472988
 40
0.8548183550244568
 40
1.0
 40
1.0
 40
1.0
 40
1.0
 10
40.36551236853353
 20
31.44056599249888
 30
0.0
 10
40.36551236853353
 20
31.4459556960029
 30
0.0
 10
40.36551236853353
 20
31.4567645386787
 30
0.0
 10
40.36551236853353
 20
31.47251895057983
 30
0.0
 10
40.36551236853353
 20
31.48799381800391
 30
0.0
 10
40.36551236853353
 20
31.50315485865287
 30
0.0
 10
40.36551236853353
 20
31.51800286020008
 30
0.0
 10
40.36551236853353
 20
31.53256949064813
 30
0.0
 10
40.36551236853353
 20
31.54198198648567
 30
0.0
 10
40.36551236853353
 20
31.54670088435766
 30
0.0
  0
LINE
  5
390
330
1F
100
AcDbEntity
  8
0
  6
Continuous
 62
     7
370
    15
100
AcDbLine
 10
40.3655123685
 20
31.620490687
 30
0.0
 11
40.4455123685
 21
31.620490687
 31
0.0
  0
SPLINE
  5
391
330
1F
100
AcDbEntity
  8
0
  6
Continuous
 62
     7
370
    15
100
AcDbSpline
210
0.0
220
0.0
230
1.0
 70
    24
 71
     3
 72
    10
 73
     6
 74
     0
 42
0.00000001
 43
0.00000001
 40
0.0
 40
0.0
 40
0.0
 40
0.0
 40
0.5
 40
0.5
 40
1.0
 40
1.0
 40
1.0
 40
1.0
 10
40.44551236853354
 20
31.5467008843575
 30
0.0
 10
40.44551236853354
 20
31.5608480832421
 30
0.0
 10
40.44551236853354
 20
31.57374221646206
 30
0.0
 10
40.44551236853354
 20
31.59782727592155
 30
0.0
 10
40.44551236853354
 20
31.60902882770513
 30
0.0
 10
40.44551236853354
 20
31.62049068702678
 30
0.0
  0
SPLINE
  5
392
330
1F
100
AcDbEntity
  8
0
  6
Continuous
 62
     7
370
    15
100
AcDbSpline
210
0.0
220
0.0
230
1.0
 70
    24
 71
     3
 72
    15
 73
    11
 74
     0
 42
0.00000001
 43
0.00000001
 40
0.0
 40
0.0
 40
0.0
 40
0.0
 40
0.0948961613436235
 40
0.1923424892229628
 40
0.292340774268206
 40
0.3948926734325783
 40
0.4999997229005376
 40
0.6148430343084671
 40
0.7499996305596677
 40
1.0
 40
1.0
 40
1.0
 40
1.0
 10
40.36551236853353
 20
31.5467008843575
 30
0.0
 10
40.36551236853352
 20
31.54935926777349
 30
0.0
 10
40.36551236853352
 20
31.55474747395907
 30
0.0
 10
40.36551236853353
 20
31.5625967003101
 30
0.0
 10
40.36551236853353
 20
31.57041486091587
 30
0.0
 10
40.36551236853353
 20
31.57817534801398
 30
0.0
 10
40.36551236853353
 20
31.58606167409395
 30
0.0
 10
40.36551236853353
 20
31.59447068952226
 30
0.0
 10
40.36551236853353
 20
31.60602528594562
 30
0.0
 10
40.36551236853353
 20
31.6147970495383
 30
0.0
 10
40.36551236853353
 20
31.62049068702678
 30
0.0
  0
LINE
  5
393
330
1F
100
AcDbEntity
  8
0
  6
Continuous
 62
     7
370
    15
100
AcDbLine
 10
40.3655123685
 20
31.6275512223
 30
0.0
 11
40.4455123685
 21
31.6275512223
 31
0.0
  0
LINE
  5
394
330
1F
100
AcDbEntity
  8
0
  6
Continuous
 62
     7
370
    15
100
AcDbLine
 10
40.3655123685
 20
31.8724129235
 30
0.0
 11
40.4455123685
 21
31.8724129235
 31
0.0
  0
SPLINE
  5
395
330
1F
100
AcDbEntity
  8
0
  6
Continuous
 62
     7
370
    15
100
AcDbSpline
210
0.0
220
0.0
230
1.0
 70
    24
 71
     3
 72
    19
 73
    15
 74
     0
 42
0.00000001
 43
0.00000001
 40
0.0
 40
0.0
 40
0.0
 40
0.0
 40
0.0887587414336668
 40
0.2049549911633021
 40
0.3178648208491993
 40
0.4331907004147592
 40
0.5471024502785933
 40
0.6302352142293075
 40
0.7165045226335256
 40
0.8005573871101508
 40
0.850687402800603
 40
0.8967557674250837
 40
0.9447832437860234
 40
1.0
 40
1.0
 40
1.0
 40
1.0
 10
40.44551236853353
 20
31.64043643961309
 30
0.0
 10
40.44551236853353
 20
31.65737771419202
 30
0.0
 10
40.44551236853353
 20
31.69649722766792
 30
0.0
 10
40.44551236853353
 20
31.74318493596133
 30
0.0
 10
40.44551236853354
 20
31.78468695935144
 30
0.0
 10
40.44551236853354
 20
31.8162713851491
 30
0.0
 10
40.44551236853356
 20
31.83767586683278
 30
0.0
 10
40.44551236853356
 20
31.8519964082953
 30
0.0
 10
40.44551236853357
 20
31.86135461555312
 30
0.0
 10
40.44551236853358
 20
31.86675033699737
 30
0.0
 10
40.44551236853358
 20
31.86961261231168
 30
0.0
 10
40.44551236853359
 20
31.87107116558849
 30
0.0
 10
40.4455123685336
 20
31.87197426555734
 30
0.0
 10
40.4455123685336
 20
31.87226006975807
 30
0.0
 10
40.4455123685336
 20
31.87241292266311
 30
0.0
  0
SPLINE
  5
396
330
1F
100
AcDbEntity
  8
0
  6
Continuous
 62
     7
370
    15
100
AcDbSpline
210
0.0
220
0.0
230
1.0
 70
    24
 71
     3
 72
    19
 73
    15
 74
     0
 42
0.00000001
 43
0.00000001
 40
0.0
 40
0.0
 40
0.0
 40
0.0
 40
0.0887568970503059
 40
0.2049542794926786
 40
0.3178612265811922
 40
0.4331880740482751
 40
0.5470995174598926
 40
0.6302312788767992
 40
0.716503035927598
 40
0.8005535517619625
 40
0.8506853027762453
 40
0.8967539156401452
 40
0.9447807319425727
 40
1.0
 40
1.0
 40
1.0
 40
1.0
 10
40.36551236853353
 20
31.64043643961308
 30
0.0
 10
40.36551236853353
 20
31.65737731527948
 30
0.0
 10
40.36551236853353
 20
31.69649658467232
 30
0.0
 10
40.36551236853353
 20
31.74318386811805
 30
0.0
 10
40.36551236853354
 20
31.78468652189026
 30
0.0
 10
40.36551236853354
 20
31.81627033310838
 30
0.0
 10
40.36551236853355
 20
31.83767553720441
 30
0.0
 10
40.36551236853356
 20
31.85199599821135
 30
0.0
 10
40.36551236853357
 20
31.86135422202358
 30
0.0
 10
40.36551236853358
 20
31.86675025577794
 30
0.0
 10
40.36551236853359
 20
31.86961244334107
 30
0.0
 10
40.36551236853359
 20
31.87107117947546
 30
0.0
 10
40.36551236853359
 20
31.87197425936175
 30
0.0
 10
40.36551236853359
 20
31.87226006485504
 30
0.0
 10
40.36551236853361
 20
31.87241292266311
 30
0.0
  0
DIMENSION
  5
397
330
1F
100
AcDbEntity
  8
0
  6
Continuous
 62
     7
370
     0
100
AcDbDimension
  2
*D61
 10
40.4455123685
 20
20.7500307925
 30
0.0
 11
41.7033918888
 21
20.7500307925
 31
0.0
 70
   160
 71
     2
 42
-1.0
  3
SLDDIMSTYLE4
100
AcDbAlignedDimension
 13
40.3655123685
 23
21.2632544528
 33
0.0
 14
40.4455123685
 24
21.2632544528
 34
0.0
 50
0.0
100
AcDbRotatedDimension
  0
CIRCLE
  5
3A3
330
1F
100
AcDbEntity
  8
0
  6
Continuous
 62
     7
370
    15
100
AcDbCircle
 10
29.8428064474
 20
7.3449315648
 30
0.0
 40
0.0750000000000028
  0
CIRCLE
  5
3A4
330
1F
100
AcDbEntity
  8
0
  6
Continuous
 62
     7
370
    15
100
AcDbCircle
 10
22.2115618024
 20
7.3449315648
 30
0.0
 40
0.0749999999999993
  0
CIRCLE
  5
3A5
330
1F
100
AcDbEntity
  8
0
  6
Continuous
 62
     7
370
    15
100
AcDbCircle
 10
26.0271841249
 20
7.3449315648
 30
0.0
 40
0.0750000000000028
  0
CIRCLE
  5
3A6
330
1F
100
AcDbEntity
  8
0
  6
Continuous
 62
     7
370
    15
100
AcDbCircle
 10
22.2115618024
 20
13.9137930017
 30
0.0
 40
0.0749999999999993
  0
CIRCLE
  5
3A7
330
1F
100
AcDbEntity
  8
0
  6
Continuous
 62
     7
370
    15
100
AcDbCircle
 10
22.2115618024
 20
10.4137930017
 30
0.0
 40
0.0749999999999993
  0
CIRCLE
  5
3A8
330
1F
100
AcDbEntity
  8
0
  6
Continuous
 62
     7
370
    15
100
AcDbCircle
 10
22.2115618024
 20
16.9826544386
 30
0.0
 40
0.0749999999999993
  0
CIRCLE
  5
3A9
330
1F
100
AcDbEntity
  8
0
  6
Continuous
 62
     7
370
    15
100
AcDbCircle
 10
25.5217962276
 20
15.8684877494
 30
0.0
 40
0.0750000000000006
  0
CIRCLE
  5
3AA
330
1F
100
AcDbEntity
  8
0
  6
Continuous
 62
     7
370
    15
100
AcDbCircle
 10
28.3700962181
 20
13.8652771302
 30
0.0
 40
0.0750000000000015
  0
CIRCLE
  5
3AB
330
1F
100
AcDbEntity
  8
0
  6
Continuous
 62
     7
370
    15
100
AcDbCircle
 10
29.8428064474
 20
10.8222142589
 30
0.0
 40
0.0749999999999999
  0
LINE
  5
3AC
330
1F
100
AcDbEntity
  8
0
  6
Continuous
 62
     7
370
    15
100
AcDbLine
 10
22.1281167782
 20
7.1574315648
 30
0.0
 11
29.9259389408
 21
7.1574315648
 31
0.0
  0
SPLINE
  5
3AD
330
1F
100
AcDbEntity
  8
0
  6
Continuous
 62
     7
370
    15
100
AcDbSpline
210
0.0
220
0.0
230
1.0
 70
     8
 71
     3
 72
    21
 73
    17
 74
     0
 42
0.00000001
 43
0.00000001
 40
0.0
 40
0.0
 40
0.0
 40
0.0
 40
0.0421303827484054
 40
0.0838559008114805
 40
0.1253518510120094
 40
0.1667964432619633
 40
0.2083685479572194
 40
0.2502454015774527
 40
0.3750574689379411
 40
0.4998407348258238
 40
0.624428711809386
 40
0.749315441953707
 40
0.8120658434272218
 40
0.8743587303846906
 40
0.9368021992883773
 40
1.0
 40
1.0
 40
1.0
 40
1.0
 10
22.02406180236957
 20
7.261499881672695
 30
0.0
 10
22.02410411943707
 20
7.259204107137045
 30
0.0
 10
22.02418834691339
 20
7.254634620007138
 30
0.0
 10
22.02486772609554
 20
7.247831782406289
 30
0.0
 10
22.02595382855677
 20
7.241123076973189
 30
0.0
 10
22.02748497406464
 20
7.23450904251746
 30
0.0
 10
22.02945166448827
 20
7.227989385370049
 30
0.0
 10
22.03342724306475
 20
7.21735737647233
 30
0.0
 10
22.04089062938638
 20
7.203206913453696
 30
0.0
 10
22.05393153089505
 20
7.187368688244308
 30
0.0
 10
22.06976165395012
 20
7.174308443215791
 30
0.0
 10
22.08490938756103
 20
7.166305020130181
 30
0.0
 10
22.09774775843528
 20
7.161713016588996
 30
0.0
 10
22.10767614984605
 20
7.159250711446882
 30
0.0
 10
22.11782407262865
 20
7.157714020525626
 30
0.0
 10
22.12467217131901
 20
7.157526092777755
 30
0.0
 10
22.12811677815568
 20
7.157431564758462
 30
0.0
  0
LINE
  5
3AE
330
1F
100
AcDbEntity
  8
0
  6
Continuous
 62
     7
370
    15
100
AcDbLine
 10
22.0240618024
 20
17.086427551
 30
0.0
 11
22.0240618024
 21
7.2614998817
 31
0.0
  0
SPLINE
  5
3AF
330
1F
100
AcDbEntity
  8
0
  6
Continuous
 62
     7
370
    15
100
AcDbSpline
210
0.0
220
0.0
230
1.0
 70
     8
 71
     3
 72
    24
 73
    20
 74
     0
 42
0.00000001
 43
0.00000001
 40
0.0
 40
0.0
 40
0.0
 40
0.0
 40
0.0362352862282331
 40
0.0720705023007817
 40
0.1076452456242102
 40
0.1431021902574769
 40
0.1785854312532504
 40
0.2142387448304919
 40
0.2502038675905467
 40
0.3126128278624022
 40
0.374927581189874
 40
0.4996695074494508
 40
0.6246982354440237
 40
0.6870665881841803
 40
0.7494320398547223
 40
0.8123049471691408
 40
0.8744864264026584
 40
0.9367838125463687
 40
0.9999999999999999
 40
0.9999999999999999
 40
0.9999999999999999
 40
0.9999999999999999
 10
22.15176206459974
 20
17.18809729619189
 30
0.0
 10
22.14954513501357
 20
17.1885441100093
 30
0.0
 10
22.14513575273811
 20
17.18943280441763
 30
0.0
 10
22.13846214299645
 20
17.19024403153926
 30
0.0
 10
22.13180381753636
 20
17.19065838937108
 30
0.0
 10
22.12515326666457
 20
17.1906402878105
 30
0.0
 10
22.11851293129425
 20
17.19019937178252
 30
0.0
 10
22.11188243246039
 20
17.18933222472106
 30
0.0
 10
22.10367000325614
 20
17.18773319061283
 30
0.0
 10
22.0940062531947
 20
17.18497831554904
 30
0.0
 10
22.07958532674315
 20
17.17905226287946
 30
0.0
 10
22.06290326383422
 20
17.16867560231982
 30
0.0
 10
22.04896938127971
 20
17.15481756648777
 30
0.0
 10
22.03990326130372
 20
17.14210838444582
 30
0.0
 10
22.03422183737417
 20
17.13184611197964
 30
0.0
 10
22.02970227965087
 20
17.12103320547814
 30
0.0
 10
22.02645830866954
 20
17.10978183720416
 30
0.0
 10
22.02443496049335
 20
17.09820908596973
 30
0.0
 10
22.02418679487382
 20
17.09037384812254
 30
0.0
 10
22.02406180373642
 20
17.08642755091901
 30
0.0
  0
SPLINE
  5
3B0
330
1F
100
AcDbEntity
  8
0
  6
Continuous
 62
     7
370
    15
100
AcDbSpline
210
0.0
220
0.0
230
1.0
 70
     8
 71
     3
 72
    53
 73
    49
 74
     0
 42
0.00000001
 43
0.00000001
 40
0.0
 40
0.0
 40
0.0
 40
0.0
 40
0.0069174990709712
 40
0.0138384883933119
 40
0.0207633031397889
 40
0.0276922779280323
 40
0.0346257467733659
 40
0.0415640430420697
 40
0.0485074994051094
 40
0.0554564477923518
 40
0.0624112193473132
 40
0.0693721443824542
 40
0.0763395523350585
 40
0.0833137717237205
 40
0.0902951301054665
 40
0.0972839540335364
 40
0.1042805690158532
 40
0.1112852994741925
 40
0.1182984687040926
 40
0.1253203988355063
 40
0.1565180395822004
 40
0.1877780195334124
 40
0.219128403577949
 40
0.2505970147282554
 40
0.3127486413692531
 40
0.3756337856039814
 40
0.4066590359568841
 40
0.4377551579628351
 40
0.4998532463357814
 40
0.5614518686054911
 40
0.624607444564451
 40
0.6557724447333986
 40
0.6873250862000264
 40
0.7182604403906707
 40
0.7498813568874004
 40
0.7683079098258303
 40
0.7868632032167554
 40
0.8055491955736538
 40
0.8243678046032556
 40
0.8433209077572043
 40
0.8624103428045706
 40
0.8816379084226935
 40
0.9010053648039293
 40
0.9205144342760265
 40
0.9401668019339806
 40
0.9599641162813327
 40
0.9799079898790212
 40
1.0
 40
1.0
 40
1.0
 40
1.0
 10
29.53990424343511
 20
12.73299540940956
 30
0.0
 10
29.52843140612848
 20
12.74986276587718
 30
0.0
 10
29.50547994285004
 20
12.78360598930347
 30
0.0
 10
29.4705974860274
 20
12.83392875373486
 30
0.0
 10
29.43537168539302
 20
12.88405269357594
 30
0.0
 10
29.39977035046915
 20
12.93395600749201
 30
0.0
 10
29.36380211444679
 20
12.9836445417656
 30
0.0
 10
29.327464662363
 20
13.03311672810595
 30
0.0
 10
29.29075861556814
 20
13.08237298683122
 30
0.0
 10
29.25368380784334
 20
13.13141320488797
 30
0.0
 10
29.21624028422681
 20
13.1802374123066
 30
0.0
 10
29.17842803311762
 20
13.22884560075056
 30
0.0
 10
29.14024705801905
 20
13.27723777217931
 30
0.0
 10
29.10169735874915
 20
13.32541392584391
 30
0.0
 10
29.06277893476777
 20
13.37337406158626
 30
0.0
 10
29.02349179068895
 20
13.42111817966403
 30
0.0
 10
28.9838359108562
 20
13.46864627814325
 30
0.0
 10
28.9438113556802
 20
13.5159583635215
 30
0.0
 10
28.90341790112078
 20
13.56305441077705
 30
0.0
 10
28.81589557865752
 20
13.66371444427567
 30
0.0
 10
28.67860422150379
 20
13.8158520699638
 30
0.0
 10
28.48715715589668
 20
14.01559236483728
 30
0.0
 10
28.28925257196931
 20
14.21008342553243
 30
0.0
 10
28.01881786863467
 20
14.46051000343755
 30
0.0
 10
27.66659818317072
 20
14.75916632650035
 30
0.0
 10
27.29909841599032
 20
15.03661264182746
 30
0.0
 10
26.99602303108672
 20
15.2465315689009
 30
0.0
 10
26.68934138222964
 20
15.44693742950817
 30
0.0
 10
26.2973171790864
 20
15.68122567938218
 30
0.0
 10
25.81075157733287
 20
15.94023764780387
 30
0.0
 10
25.39515524507293
 20
16.13734087619293
 30
0.0
 10
25.05475841807347
 20
16.285425693912
 30
0.0
 10
24.79924267153609
 20
16.39029285249039
 30
0.0
 10
24.5404181318338
 20
16.49047849932441
 30
0.0
 10
24.31609907329759
 20
16.57245281269977
 30
0.0
 10
24.12511252147049
 20
16.63918203548102
 30
0.0
 10
23.96958302434886
 20
16.69172152238263
 30
0.0
 10
23.81242698943633
 20
16.74303094382244
 30
0.0
 10
23.65364396497552
 20
16.79310967442893
 30
0.0
 10
23.49323407113675
 20
16.84195788376756
 30
0.0
 10
23.33119728484572
 20
16.88957558071664
 30
0.0
 10
23.1675335757625
 20
16.93596261022254
 30
0.0
 10
23.00224308725191
 20
16.98111964268156
 30
0.0
 10
22.83532526579064
 20
17.02504417639233
 30
0.0
 10
22.66678219683807
 20
17.06774569248166
 30
0.0
 10
22.49660600387573
 20
17.1091884512064
 30
0.0
 10
22.32482640170724
 20
17.14950735416128
 30
0.0
 10
22.20959230230694
 20
17.17520229022223
 30
0.0
 10
22.15176206412107
 20
17.18809729508893
 30
0.0
  0
SPLINE
  5
3B1
330
1F
100
AcDbEntity
  8
0
  6
Continuous
 62
     7
370
    15
100
AcDbSpline
210
0.0
220
0.0
230
1.0
 70
     8
 71
     3
 72
    31
 73
    27
 74
     0
 42
0.00000001
 43
0.00000001
 40
0.0
 40
0.0
 40
0.0
 40
0.0
 40
0.0193131464321501
 40
0.0386115985357606
 40
0.0578978870809007
 40
0.0771745476283814
 40
0.0964441195396755
 40
0.1157091449793575
 40
0.1349721679120135
 40
0.1542357330955878
 40
0.173502385073161
 40
0.1927746671651557
 40
0.2120551204639563
 40
0.2313462828329383
 40
0.2506506879118553
 40
0.3759486435024125
 40
0.5012453757830816
 40
0.6259457914289609
 40
0.7506497312994119
 40
0.7863032979699036
 40
0.8219194538985052
 40
0.8575142096931585
 40
0.8931036048436599
 40
0.9287036860854706
 40
0.9643304857146192
 40
1.0
 40
1.0
 40
1.0
 40
1.0
 10
30.03030644744827
 20
11.13429662353761
 30
0.0
 10
30.03027010455788
 20
11.14522129797161
 30
0.0
 10
30.03019744642843
 20
11.16706233484569
 30
0.0
 10
30.02961350152383
 20
11.19980855785312
 30
0.0
 10
30.02868176101646
 20
11.23252555324348
 30
0.0
 10
30.02736820071856
 20
11.26521331862545
 30
0.0
 10
30.02568192918119
 20
11.2978718524563
 30
0.0
 10
30.0236205073307
 20
11.3305011530897
 30
0.0
 10
30.021184588547
 20
11.36310121840739
 30
0.0
 10
30.01837399743901
 20
11.39567204827051
 30
0.0
 10
30.0151887830398
 20
11.42821363510902
 30
0.0
 10
30.01162892572155
 20
11.46072599914949
 30
0.0
 10
30.00769445657323
 20
11.49320905688019
 30
0.0
 10
30.00338527285671
 20
11.52566311230866
 30
0.0
 10
29.99013157331335
 20
11.61741828020899
 30
0.0
 10
29.96182168937677
 20
11.76760739380623
 30
0.0
 10
29.90694305718064
 20
11.97287717292817
 30
0.0
 10
29.83712827556893
 20
12.17320244738858
 30
0.0
 10
29.77280015087674
 20
12.32124270307873
 30
0.0
 10
29.72383937369181
 20
12.42070320395012
 30
0.0
 10
29.69599755494307
 20
12.47436410277939
 30
0.0
 10
29.66703944165624
 20
12.52738855494279
 30
0.0
 10
29.63697166793086
 20
12.57978207370652
 30
0.0
 10
29.60576861167791
 20
12.63152697767473
 30
0.0
 10
29.57352632412914
 20
12.68268834731562
 30
0.0
 10
29.55111607909815
 20
12.71621969233896
 30
0.0
 10
29.53990424343115
 20
12.73299540940832
 30
0.0
  0
LINE
  5
3B2
330
1F
100
AcDbEntity
  8
0
  6
Continuous
 62
     7
370
    15
100
AcDbLine
 10
30.0303064474
 20
7.2625747851
 30
0.0
 11
30.0303064474
 21
11.1342966235
 31
0.0
  0
SPLINE
  5
3B3
330
1F
100
AcDbEntity
  8
0
  6
Continuous
 62
     7
370
    15
100
AcDbSpline
210
0.0
220
0.0
230
1.0
 70
     8
 71
     3
 72
    22
 73
    18
 74
     0
 42
0.00000001
 43
0.00000001
 40
0.0
 40
0.0
 40
0.0
 40
0.0
 40
0.0360811580569098
 40
0.0718612834870443
 40
0.1074538613869971
 40
0.1429741745053289
 40
0.1785382083482996
 40
0.2142615225707983
 40
0.2502581428508602
 40
0.3749490595677613
 40
0.4998560823790207
 40
0.6244135893041518
 40
0.7493269108688165
 40
0.8121324419445336
 40
0.8744471079298892
 40
0.9368707240306998
 40
1.0
 40
1.0
 40
1.0
 40
1.0
 10
29.92593894078972
 20
7.157431564758459
 30
0.0
 10
29.92791724578144
 20
7.157463526805828
 30
0.0
 10
29.93185735035375
 20
7.157527184234541
 30
0.0
 10
29.93773073065675
 20
7.158037918645071
 30
0.0
 10
29.94353630584024
 20
7.158853759697916
 30
0.0
 10
29.94927393241312
 20
7.160003831523172
 30
0.0
 10
29.95494328739114
 20
7.161480182630287
 30
0.0
 10
29.96054471719014
 20
7.163285482925743
 30
0.0
 10
29.97059481405122
 20
7.167157418986505
 30
0.0
 10
29.98450235772164
 20
7.17460211742709
 30
0.0
 10
30.00035585629364
 20
7.187821183747368
 30
0.0
 10
30.01341892585779
 20
7.203820185132463
 30
0.0
 10
30.021422246675
 20
7.21908930126766
 30
0.0
 10
30.02601845329569
 20
7.232022115640944
 30
0.0
 10
30.02848417036398
 20
7.242018312561553
 30
0.0
 10
30.03002331302214
 20
7.252226597174728
 30
0.0
 10
30.03021171633769
 20
7.259112488571498
 30
0.0
 10
30.03030644744827
 20
7.262574785067532
 30
0.0
  0
LINE
  5
3B4
330
1F
100
AcDbEntity
  8
0
  6
CENTERX2
 62
     7
370
     0
100
AcDbLine
 10
21.851684942
 20
17.1906045758
 30
0.0
 11
22.4550895712
 21
17.1906045758
 31
0.0
  0
DIMENSION
  5
3B5
330
1F
100
AcDbEntity
  8
0
  6
Continuous
 62
     7
370
     0
100
AcDbDimension
  2
*D62
 10
22.1281167782
 20
7.1574315648
 30
0.0
 11
20.450772195
 21
7.1574315648
 31
0.0
 70
    38
 71
     5
 42
-1.0
  3
SLDDIMSTYLE0
100
AcDbOrdinateDimension
 13
22.1281167782
 23
7.1574315648
 33
0.0
 14
20.6209726761
 24
7.1574315648
 34
0.0
  0
DIMENSION
  5
3BE
330
1F
100
AcDbEntity
  8
0
  6
Continuous
 62
     7
370
     0
100
AcDbDimension
  2
*D63
 10
22.1281167782
 20
7.1574315648
 30
0.0
 11
20.0738205112
 21
7.6251119251
 31
0.0
 70
    38
 71
     5
 42
-1.0
  3
SLDDIMSTYLE1
100
AcDbOrdinateDimension
 13
22.0381366055
 23
7.3449315648
 33
0.0
 14
20.6209726761
 24
7.6251119251
 34
0.0
  0
DIMENSION
  5
3C8
330
1F
100
AcDbEntity
  8
0
  6
Continuous
 62
     7
370
     0
100
AcDbDimension
  2
*D64
 10
22.1281167782
 20
7.1574315648
 30
0.0
 11
20.0738205112
 21
10.4137930017
 31
0.0
 70
    38
 71
     5
 42
-1.0
  3
SLDDIMSTYLE1
100
AcDbOrdinateDimension
 13
22.0381366055
 23
10.4137930017
 33
0.0
 14
20.6209726761
 24
10.4137930017
 34
0.0
  0
DIMENSION
  5
3D0
330
1F
100
AcDbEntity
  8
0
  6
Continuous
 62
     7
370
     0
100
AcDbDimension
  2
*D65
 10
22.1281167782
 20
7.1574315648
 30
0.0
 11
20.0738205112
 21
13.9137930017
 31
0.0
 70
    38
 71
     5
 42
-1.0
  3
SLDDIMSTYLE1
100
AcDbOrdinateDimension
 13
22.0381366055
 23
13.9137930017
 33
0.0
 14
20.6209726761
 24
13.9137930017
 34
0.0
  0
DIMENSION
  5
3D8
330
1F
100
AcDbEntity
  8
0
  6
Continuous
 62
     7
370
     0
100
AcDbDimension
  2
*D66
 10
22.1281167782
 20
7.1574315648
 30
0.0
 11
20.0738205112
 21
16.4901459528
 31
0.0
 70
    38
 71
     5
 42
-1.0
  3
SLDDIMSTYLE1
100
AcDbOrdinateDimension
 13
22.0381366055
 23
16.9826544386
 33
0.0
 14
20.6209726761
 24
16.4901459528
 34
0.0
  0
DIMENSION
  5
3E2
330
1F
100
AcDbEntity
  8
0
  6
Continuous
 62
     7
370
     0
100
AcDbDimension
  2
*D67
 10
22.1281167782
 20
7.1574315648
 30
0.0
 11
19.9661200301
 21
17.1906045758
 31
0.0
 70
    38
 71
     5
 42
-1.0
  3
SLDDIMSTYLE1
100
AcDbOrdinateDimension
 13
21.851684942
 23
17.1906045758
 33
0.0
 14
20.6209726761
 24
17.1906045758
 34
0.0
  0
DIMENSION
  5
3EA
330
1F
100
AcDbEntity
  8
0
  6
Continuous
 62
     7
370
     0
100
AcDbDimension
  2
*D68
 10
22.0240618024
 20
7.2614998817
 30
0.0
 11
22.0240618024
 21
5.8794751782
 31
0.0
 70
   102
 71
     5
 42
-1.0
  3
SLDDIMSTYLE0
100
AcDbOrdinateDimension
 13
22.0240618024
 23
7.2614998817
 33
0.0
 14
22.0240618024
 24
6.0496756592
 34
0.0
  0
DIMENSION
  5
3F3
330
1F
100
AcDbEntity
  8
0
  6
Continuous
 62
     7
370
     0
100
AcDbDimension
  2
*D69
 10
22.0240618024
 20
7.2614998817
 30
0.0
 11
22.4853861562
 21
5.5025234943
 31
0.0
 70
   102
 71
     5
 42
-1.0
  3
SLDDIMSTYLE1
100
AcDbOrdinateDimension
 13
22.2115618024
 23
7.1715063679
 33
0.0
 14
22.4853861562
 24
6.0496756592
 34
0.0
  0
DIMENSION
  5
3FD
330
1F
100
AcDbEntity
  8
0
  6
Continuous
 62
     7
370
     0
100
AcDbDimension
  2
*D70
 10
22.0240618024
 20
7.2614998817
 30
0.0
 11
26.0271841249
 21
5.5025234943
 31
0.0
 70
   102
 71
     5
 42
-1.0
  3
SLDDIMSTYLE1
100
AcDbOrdinateDimension
 13
26.0271841249
 23
7.1715063679
 33
0.0
 14
26.0271841249
 24
6.0496756592
 34
0.0
  0
DIMENSION
  5
405
330
1F
100
AcDbEntity
  8
0
  6
Continuous
 62
     7
370
     0
100
AcDbDimension
  2
*D71
 10
22.0240618024
 20
7.2614998817
 30
0.0
 11
29.200810373
 21
5.5025234943
 31
0.0
 70
   102
 71
     5
 42
-1.0
  3
SLDDIMSTYLE1
100
AcDbOrdinateDimension
 13
29.8428064474
 23
7.1715063679
 33
0.0
 14
29.200810373
 24
6.0496756592
 34
0.0
  0
DIMENSION
  5
40F
330
1F
100
AcDbEntity
  8
0
  6
Continuous
 62
     7
370
     0
100
AcDbDimension
  2
*D72
 10
22.0240618024
 20
7.2614998817
 30
0.0
 11
30.0303064474
 21
5.5025234943
 31
0.0
 70
   102
 71
     5
 42
-1.0
  3
SLDDIMSTYLE1
100
AcDbOrdinateDimension
 13
30.0303064474
 23
7.2625747851
 33
0.0
 14
30.0303064474
 24
6.0496756592
 34
0.0
  0
DIMENSION
  5
417
330
1F
100
AcDbEntity
  8
0
  6
Continuous
 62
     7
370
     0
100
AcDbDimension
  2
*D73
 10
22.2489491541
 20
7.4099483774
 30
0.0
 11
20.9336851207
 21
6.7971995101
 31
0.0
 70
   163
  1
<>
 71
     1
 42
-1.0
  3
SLDDIMSTYLE3
100
AcDbDiametricDimension
 15
22.1741744506
 25
7.2799147521
 35
0.0
 40
0.0
  0
MTEXT
  5
421
330
1F
100
AcDbEntity
  8
0
  6
Continuous
 62
     7
370
     0
100
AcDbMText
 10
23.4766431926
 20
10.7872945465
 30
0.0
 40
0.375
 41
0.0
 71
     1
 72
     1
  1
10in Right Insert
  7
SLDTEXTSTYLE0
 73
     1
 44
1.0
  0
INSERT
  5
429
330
1F
100
AcDbEntity
  8
0
  6
Continuous
 62
     7
370
     0
100
AcDbBlockReference
  2
SW_NOTE_5
 10
31.7728732815
 20
9.0594580336
 30
0.0
  0
LEADER
  5
42A
330
1F
100
AcDbEntity
  8
0
  6
Continuous
 62
     7
370
     0
100
AcDbLeader
  3
SLDDIMSTYLE6
 76
     2
 10
30.0303064474
 20
9.6803956729
 30
0.0
 10
31.7728732815
 20
9.0594580336
 30
0.0
  0
INSERT
  5
436
330
1F
100
AcDbEntity
  8
0
  6
Continuous
 62
     7
370
     0
100
AcDbBlockReference
  2
SW_CENTERMARKSYMBOL_19
 10
29.8428064474
 20
7.3449315648
 30
0.0
  0
INSERT
  5
442
330
1F
100
AcDbEntity
  8
0
  6
Continuous
 62
     7
370
     0
100
AcDbBlockReference
  2
SW_CENTERMARKSYMBOL_20
 10
22.2115618024
 20
7.3449315648
 30
0.0
  0
INSERT
  5
44E
330
1F
100
AcDbEntity
  8
0
  6
Continuous
 62
     7
370
     0
100
AcDbBlockReference
  2
SW_CENTERMARKSYMBOL_21
 10
26.0271841249
 20
7.3449315648
 30
0.0
  0
INSERT
  5
45A
330
1F
100
AcDbEntity
  8
0
  6
Continuous
 62
     7
370
     0
100
AcDbBlockReference
  2
SW_CENTERMARKSYMBOL_22
 10
22.2115618024
 20
13.9137930017
 30
0.0
  0
INSERT
  5
466
330
1F
100
AcDbEntity
  8
0
  6
Continuous
 62
     7
370
     0
100
AcDbBlockReference
  2
SW_CENTERMARKSYMBOL_23
 10
22.2115618024
 20
10.4137930017
 30
0.0
  0
INSERT
  5
472
330
1F
100
AcDbEntity
  8
0
  6
Continuous
 62
     7
370
     0
100
AcDbBlockReference
  2
SW_CENTERMARKSYMBOL_24
 10
22.2115618024
 20
16.9826544386
 30
0.0
  0
INSERT
  5
47E
330
1F
100
AcDbEntity
  8
0
  6
Continuous
 62
     7
370
     0
100
AcDbBlockReference
  2
SW_CENTERMARKSYMBOL_25
 10
25.5217962276
 20
15.8684877494
 30
0.0
  0
INSERT
  5
48A
330
1F
100
AcDbEntity
  8
0
  6
Continuous
 62
     7
370
     0
100
AcDbBlockReference
  2
SW_CENTERMARKSYMBOL_26
 10
28.3700962181
 20
13.8652771302
 30
0.0
  0
INSERT
  5
496
330
1F
100
AcDbEntity
  8
0
  6
Continuous
 62
     7
370
     0
100
AcDbBlockReference
  2
SW_CENTERMARKSYMBOL_27
 10
29.8428064474
 20
10.8222142589
 30
0.0
  0
LINE
  5
497
330
1F
100
AcDbEntity
  8
0
  6
Continuous
 62
     7
370
    15
100
AcDbLine
 10
17.2636948408
 20
17.1906045758
 30
0.0
 11
17.1836948408
 21
17.1906045758
 31
0.0
  0
LINE
  5
498
330
1F
100
AcDbEntity
  8
0
  6
Continuous
 62
     7
370
    15
100
AcDbLine
 10
17.2636948408
 20
17.086427551
 30
0.0
 11
17.1836948408
 21
17.086427551
 31
0.0
  0
LINE
  5
499
330
1F
100
AcDbEntity
  8
0
  6
Continuous
 62
     7
370
    15
100
AcDbLine
 10
17.2636948408
 20
17.086427551
 30
0.0
 11
17.2636948408
 21
7.2614998817
 31
0.0
  0
LINE
  5
49A
330
1F
100
AcDbEntity
  8
0
  6
Continuous
 62
     7
370
    15
100
AcDbLine
 10
17.2636948408
 20
7.2614998817
 30
0.0
 11
17.1836948408
 21
7.2614998817
 31
0.0
  0
LINE
  5
49B
330
1F
100
AcDbEntity
  8
0
  6
Continuous
 62
     7
370
    15
100
AcDbLine
 10
17.1836948408
 20
17.086427551
 30
0.0
 11
17.1836948408
 21
7.2614998817
 31
0.0
  0
SPLINE
  5
49C
330
1F
100
AcDbEntity
  8
0
  6
Continuous
 62
     7
370
    15
100
AcDbSpline
210
0.0
220
0.0
230
1.0
 70
    24
 71
     3
 72
    21
 73
    17
 74
     0
 42
0.00000001
 43
0.00000001
 40
0.0
 40
0.0
 40
0.0
 40
0.0
 40
0.0421303827484054
 40
0.0838559008114805
 40
0.1253518510120094
 40
0.1667964432619633
 40
0.2083685479572194
 40
0.2502454015774527
 40
0.3750574689379411
 40
0.4998407348258238
 40
0.624428711809386
 40
0.749315441953707
 40
0.8120658434272218
 40
0.8743587303846906
 40
0.9368021992883773
 40
1.0
 40
1.0
 40
1.0
 40
1.0
 10
17.26369484084409
 20
7.261499881672695
 30
0.0
 10
17.26369484084409
 20
7.259204107137045
 30
0.0
 10
17.26369484084409
 20
7.254634620007138
 30
0.0
 10
17.26369484084409
 20
7.247831782406289
 30
0.0
 10
17.26369484084409
 20
7.241123076973189
 30
0.0
 10
17.26369484084409
 20
7.23450904251746
 30
0.0
 10
17.26369484084409
 20
7.227989385370049
 30
0.0
 10
17.26369484084409
 20
7.21735737647233
 30
0.0
 10
17.26369484084409
 20
7.203206913453696
 30
0.0
 10
17.26369484084409
 20
7.187368688244308
 30
0.0
 10
17.26369484084409
 20
7.174308443215791
 30
0.0
 10
17.26369484084409
 20
7.166305020130181
 30
0.0
 10
17.26369484084409
 20
7.161713016588996
 30
0.0
 10
17.26369484084409
 20
7.159250711446882
 30
0.0
 10
17.26369484084409
 20
7.157714020525626
 30
0.0
 10
17.26369484084409
 20
7.157526092777755
 30
0.0
 10
17.26369484084409
 20
7.157431564758462
 30
0.0
  0
LINE
  5
49D
330
1F
100
AcDbEntity
  8
0
  6
Continuous
 62
     7
370
    15
100
AcDbLine
 10
17.2636948408
 20
7.1574315648
 30
0.0
 11
17.1836948408
 21
7.1574315648
 31
0.0
  0
SPLINE
  5
49E
330
1F
100
AcDbEntity
  8
0
  6
Continuous
 62
     7
370
    15
100
AcDbSpline
210
0.0
220
0.0
230
1.0
 70
    24
 71
     3
 72
    20
 73
    16
 74
     0
 42
0.00000001
 43
0.00000001
 40
0.0
 40
0.0
 40
0.0
 40
0.0
 40
0.1250000000000094
 40
0.1250000000000094
 40
0.2500000000000188
 40
0.2500000000000188
 40
0.3750000000000281
 40
0.3750000000000281
 40
0.5000000000000375
 40
0.5000000000000375
 40
0.6250000000000469
 40
0.6250000000000469
 40
0.7500000000000563
 40
0.7500000000000563
 40
1.0
 40
1.0
 40
1.0
 40
1.0
 10
17.18369484084408
 20
7.261499881672695
 30
0.0
 10
17.18369484084408
 20
7.254622905477168
 30
0.0
 10
17.18369484084408
 20
7.247859250358798
 30
0.0
 10
17.18369484084408
 20
7.234546929808535
 30
0.0
 10
17.18369484084408
 20
7.227928749005742
 30
0.0
 10
17.18369484084408
 20
7.215306583770921
 30
0.0
 10
17.18369484084408
 20
7.209323806149198
 30
0.0
 10
17.18369484084408
 20
7.197997268022154
 30
0.0
 10
17.18369484084408
 20
7.192627545392903
 30
0.0
 10
17.18369484084408
 20
7.183021299379134
 30
0.0
 10
17.18369484084408
 20
7.178721903550387
 30
0.0
 10
17.18369484084408
 20
7.171128706086087
 30
0.0
 10
17.18369484084408
 20
7.167898412588803
 30
0.0
 10
17.18369484084408
 20
7.160150394158155
 30
0.0
 10
17.18369484084408
 20
7.157431564758582
 30
0.0
 10
17.18369484084408
 20
7.157431564758462
 30
0.0
  0
SPLINE
  5
49F
330
1F
100
AcDbEntity
  8
0
  6
Continuous
 62
     7
370
    15
100
AcDbSpline
210
0.0
220
0.0
230
1.0
 70
    24
 71
     3
 72
    15
 73
    11
 74
     0
 42
0.00000001
 43
0.00000001
 40
0.0
 40
0.0
 40
0.0
 40
0.0
 40
0.0019264238342101
 40
0.14426999197476
 40
0.286544233307937
 40
0.4290603497477935
 40
0.5719041336422538
 40
0.7141835595131327
 40
0.8568282189662274
 40
1.0
 40
1.0
 40
1.0
 40
1.0
 10
17.26369484084409
 20
17.19059713601463
 30
0.0
 10
17.26369484084409
 20
17.19060865888699
 30
0.0
 10
17.26369484084409
 20
17.19147160746234
 30
0.0
 10
17.26369484084409
 20
17.18842208725849
 30
0.0
 10
17.26369484084409
 20
17.18122905470743
 30
0.0
 10
17.26369484084409
 20
17.16864278921591
 30
0.0
 10
17.26369484084409
 20
17.15208027123468
 30
0.0
 10
17.26369484084409
 20
17.13214149323185
 30
0.0
 10
17.26369484084409
 20
17.10991233471951
 30
0.0
 10
17.26369484084409
 20
17.09426543120391
 30
0.0
 10
17.26369484084409
 20
17.08642755091901
 30
0.0
  0
SPLINE
  5
4A0
330
1F
100
AcDbEntity
  8
0
  6
Continuous
 62
     7
370
    15
100
AcDbSpline
210
0.0
220
0.0
230
1.0
 70
    24
 71
     3
 72
    15
 73
    11
 74
     0
 42
0.00000001
 43
0.00000001
 40
0.0
 40
0.0
 40
0.0
 40
0.0
 40
0.0019946723436245
 40
0.1442733208972119
 40
0.2865475833876866
 40
0.4290637210208094
 40
0.5719075261572627
 40
0.7141869731862103
 40
0.8568962977264993
 40
1.0
 40
1.0
 40
1.0
 40
1.0
 10
17.18369484084408
 20
17.19059832187778
 30
0.0
 10
17.18369484084408
 20
17.19061026399829
 30
0.0
 10
17.18369484084408
 20
17.19147402961382
 30
0.0
 10
17.18369484084408
 20
17.18841958287659
 30
0.0
 10
17.18369484084408
 20
17.18122942735547
 30
0.0
 10
17.18369484084408
 20
17.16864271167103
 30
0.0
 10
17.18369484084408
 20
17.15208020732216
 30
0.0
 10
17.18369484084408
 20
17.13213881181497
 30
0.0
 10
17.18369484084408
 20
17.10990771572153
 30
0.0
 10
17.18369484084408
 20
17.094261468986
 30
0.0
 10
17.18369484084408
 20
17.08642755091901
 30
0.0
  0
DIMENSION
  5
4A1
330
1F
100
AcDbEntity
  8
0
  6
Continuous
 62
     7
370
     0
100
AcDbDimension
  2
*D84
 10
17.2636948408
 20
6.2853764379
 30
0.0
 11
16.3171594078
 21
6.2853764379
 31
0.0
 70
   160
 71
     2
 42
-1.0
  3
SLDDIMSTYLE4
100
AcDbAlignedDimension
 13
17.1836948408
 23
7.4199315648
 33
0.0
 14
17.2636948408
 24
7.2614998817
 34
0.0
100
AcDbRotatedDimension
  0
SPLINE
  5
4AD
330
1F
100
AcDbEntity
  8
0
  6
Continuous
 62
     7
370
    15
100
AcDbSpline
210
0.0
220
0.0
230
1.0
 70
     8
 71
     3
 72
    18
 73
    14
 74
     0
 42
0.00000001
 43
0.00000001
 40
0.0
 40
0.0
 40
0.0
 40
0.0
 40
0.2500000000000258
 40
0.2500000000000258
 40
0.3750000000000332
 40
0.3750000000000332
 40
0.5000000000000406
 40
0.5000000000000406
 40
0.6250000000000482
 40
0.6250000000000482
 40
0.7500000000000555
 40
0.7500000000000555
 40
1.0
 40
1.0
 40
1.0
 40
1.0
 10
11.58212649631522
 20
8.340986759275255
 30
0.0
 10
11.57867379919545
 20
8.329771325979669
 30
0.0
 10
11.57387593739185
 20
8.319206015883555
 30
0.0
 10
11.56447375942977
 20
8.304423921808107
 30
0.0
 10
11.5609703728633
 20
8.299687586403332
 30
0.0
 10
11.55336873304235
 20
8.290887555224295
 30
0.0
 10
11.5492495236461
 20
8.28678725479176
 30
0.0
 10
11.54033154118317
 20
8.279226359511384
 30
0.0
 10
11.53554425622325
 20
8.275790772775492
 30
0.0
 10
11.52556738768607
 20
8.269838911334741
 30
0.0
 10
11.52034259357291
 20
8.267291099859486
 30
0.0
 10
11.50390484305127
 20
8.261030356349007
 30
0.0
 10
11.49243052255034
 20
8.258879776039963
 30
0.0
 10
11.48066234256604
 20
8.258879776039969
 30
0.0
  0
LINE
  5
4AE
330
1F
100
AcDbEntity
  8
0
  6
Continuous
 62
     7
370
    15
100
AcDbLine
 10
11.4806623426
 20
8.258879776
 30
0.0
 11
6.3934420715
 21
8.258879776
 31
0.0
  0
SPLINE
  5
4AF
330
1F
100
AcDbEntity
  8
0
  6
Continuous
 62
     7
370
    15
100
AcDbSpline
210
0.0
220
0.0
230
1.0
 70
     8
 71
     3
 72
    18
 73
    14
 74
     0
 42
0.00000001
 43
0.00000001
 40
0.0
 40
0.0
 40
0.0
 40
0.0
 40
0.124999999999991
 40
0.124999999999991
 40
0.249999999999982
 40
0.249999999999982
 40
0.374999999999973
 40
0.374999999999973
 40
0.499999999999964
 40
0.499999999999964
 40
0.749999999999982
 40
0.749999999999982
 40
1.0
 40
1.0
 40
1.0
 40
1.0
 10
6.393442071538061
 20
8.258879776039961
 30
0.0
 10
6.387534509196756
 20
8.25887977603996
 30
0.0
 10
6.38161852750128
 20
8.259447596415988
 30
0.0
 10
6.37014455567712
 20
8.261595910099206
 30
0.0
 10
6.364559893794385
 20
8.263170751950907
 30
0.0
 10
6.353695888772945
 20
8.267324010199216
 30
0.0
 10
6.348357092310337
 20
8.269930515116835
 30
0.0
 10
6.338332386017961
 20
8.275943069932492
 30
0.0
 10
6.333635997146984
 20
8.279334510032507
 30
0.0
 10
6.32041523792181
 20
8.290567425096857
 30
0.0
 10
6.312656105072603
 20
8.299651057653529
 30
0.0
 10
6.300235582253769
 20
8.31921125284861
 30
0.0
 10
6.295439108312666
 20
8.329743727050154
 30
0.0
 10
6.291977907289786
 20
8.340986794693876
 30
0.0
  0
SPLINE
  5
4B0
330
1F
100
AcDbEntity
  8
0
  6
Continuous
 62
     7
370
    15
100
AcDbSpline
210
0.0
220
0.0
230
1.0
 70
     8
 71
     3
 72
    10
 73
     6
 74
     0
 42
0.00000001
 43
0.00000001
 40
0.0
 40
0.0
 40
0.0
 40
0.0
 40
0.5
 40
0.5
 40
1.0
 40
1.0
 40
1.0
 40
1.0
 10
6.291977907289786
 20
8.340986794693876
 30
0.0
 10
6.139821605551173
 20
8.835238235612692
 30
0.0
 10
6.003870893441497
 20
9.333916393341402
 30
0.0
 10
5.763541817575613
 20
10.33988014736076
 30
0.0
 10
5.659380901249251
 20
10.84654882908046
 30
0.0
 10
5.571004915049722
 20
11.35607784079494
 30
0.0
  0
SPLINE
  5
4B1
330
1F
100
AcDbEntity
  8
0
  6
Continuous
 62
     7
370
    15
100
AcDbSpline
210
0.0
220
0.0
230
1.0
 70
     8
 71
     3
 72
    10
 73
     6
 74
     0
 42
0.00000001
 43
0.00000001
 40
0.0
 40
0.0
 40
0.0
 40
0.0
 40
0.5
 40
0.5
 40
1.0
 40
1.0
 40
1.0
 40
1.0
 10
5.571004915049722
 20
11.35607784079494
 30
0.0
 10
5.510398314839107
 20
11.70550331751848
 30
0.0
 10
5.465088881535488
 20
12.0569176353484
 30
0.0
 10
5.404618069403067
 20
12.76360726373265
 30
0.0
 10
5.389552113403829
 20
13.11808859317674
 30
0.0
 10
5.389552113403826
 20
13.47272737685212
 30
0.0
  0
LINE
  5
4B2
330
1F
100
AcDbEntity
  8
0
  6
Continuous
 62
     7
370
    15
100
AcDbLine
 10
5.3895521134
 20
13.4727272688
 30
0.0
 11
5.3895521134
 21
16.9547242553
 31
0.0
  0
LINE
  5
4B3
330
1F
100
AcDbEntity
  8
0
  6
Continuous
 62
     7
370
    15
100
AcDbLine
 10
5.3895521134
 20
16.9547242553
 30
0.0
 11
12.4845521134
 21
16.9547242553
 31
0.0
  0
LINE
  5
4B4
330
1F
100
AcDbEntity
  8
0
  6
Continuous
 62
     7
370
    15
100
AcDbLine
 10
12.4845521134
 20
16.9547242553
 30
0.0
 11
12.4845521134
 21
13.4727502128
 31
0.0
  0
SPLINE
  5
4B5
330
1F
100
AcDbEntity
  8
0
  6
Continuous
 62
     7
370
    15
100
AcDbSpline
210
0.0
220
0.0
230
1.0
 70
     8
 71
     3
 72
    10
 73
     6
 74
     0
 42
0.00000001
 43
0.00000001
 40
0.0
 40
0.0
 40
0.0
 40
0.0
 40
0.5
 40
0.5
 40
1.0
 40
1.0
 40
1.0
 40
1.0
 10
12.48455211340368
 20
13.47275021277314
 30
0.0
 10
12.48455211340368
 20
13.11822947304919
 30
0.0
 10
12.46952307940936
 20
12.76433610411423
 30
0.0
 10
12.40911946145651
 20
12.05787464609609
 30
0.0
 10
12.36378503519476
 20
11.70609443325761
 30
0.0
 10
12.30321898694239
 20
11.35678260628734
 30
0.0
  0
SPLINE
  5
4B6
330
1F
100
AcDbEntity
  8
0
  6
Continuous
 62
     7
370
    15
100
AcDbSpline
210
0.0
220
0.0
230
1.0
 70
     8
 71
     3
 72
    10
 73
     6
 74
     0
 42
0.00000001
 43
0.00000001
 40
0.0
 40
0.0
 40
0.0
 40
0.0
 40
0.5
 40
0.5
 40
1.0
 40
1.0
 40
1.0
 40
1.0
 10
12.30321898694239
 20
11.35678260628734
 30
0.0
 10
12.21485277717866
 20
10.84713465886979
 30
0.0
 10
12.11074602635261
 20
10.34072246369393
 30
0.0
 10
11.87039448681491
 20
9.334521529161304
 30
0.0
 10
11.73431662100965
 20
8.83534758287069
 30
0.0
 10
11.58212649631522
 20
8.340986759275259
 30
0.0
  0
CIRCLE
  5
4B7
330
1F
100
AcDbEntity
  8
0
  6
Continuous
 62
     7
370
    15
100
AcDbCircle
 10
12.079746278
 20
11.1707365028
 30
0.0
 40
0.0749999998420279
  0
CIRCLE
  5
4B8
330
1F
100
AcDbEntity
  8
0
  6
Continuous
 62
     7
370
    15
100
AcDbCircle
 10
5.5770716785
 20
13.9621682369
 30
0.0
 40
0.0749999999608111
  0
CIRCLE
  5
4B9
330
1F
100
AcDbEntity
  8
0
  6
Continuous
 62
     7
370
    15
100
AcDbCircle
 10
12.2970327356
 20
13.9621682369
 30
0.0
 40
0.0749999999103004
  0
CIRCLE
  5
4BA
330
1F
100
AcDbEntity
  8
0
  6
Continuous
 62
     7
370
    15
100
AcDbCircle
 10
5.7943581361
 20
11.1707365028
 30
0.0
 40
0.0749999998815358
  0
CIRCLE
  5
4BB
330
1F
100
AcDbEntity
  8
0
  6
Continuous
 62
     7
370
    15
100
AcDbCircle
 10
6.4557772263
 20
8.446379776
 30
0.0
 40
0.0749999999999993
  0
CIRCLE
  5
4BC
330
1F
100
AcDbEntity
  8
0
  6
Continuous
 62
     7
370
    15
100
AcDbCircle
 10
11.4183271453
 20
8.446379776
 30
0.0
 40
0.0750000000000011
  0
CIRCLE
  5
4BD
330
1F
100
AcDbEntity
  8
0
  6
Continuous
 62
     7
370
    15
100
AcDbCircle
 10
8.9370521858
 20
8.446379776
 30
0.0
 40
0.0749999999902542
  0
CIRCLE
  5
4BE
330
1F
100
AcDbEntity
  8
0
  6
Continuous
 62
     7
370
    15
100
AcDbCircle
 10
5.5770521134
 20
16.7672242553
 30
0.0
 40
0.0749999999998607
  0
CIRCLE
  5
4BF
330
1F
100
AcDbEntity
  8
0
  6
Continuous
 62
     7
370
    15
100
AcDbCircle
 10
12.2970521134
 20
16.7672242553
 30
0.0
 40
0.0749999999998572
  0
CIRCLE
  5
4C0
330
1F
100
AcDbEntity
  8
0
  6
Continuous
 62
     7
370
    15
100
AcDbCircle
 10
8.9370521134
 20
16.7672242553
 30
0.0
 40
0.0749999999998572
  0
DIMENSION
  5
4C1
330
1F
100
AcDbEntity
  8
0
  6
Continuous
 62
     7
370
     0
100
AcDbDimension
  2
*D85
 10
14.0597489673
 20
16.9547242553
 30
0.0
 11
14.0597489673
 21
15.3567454537
 31
0.0
 70
   160
 71
     2
 42
-1.0
  3
SLDDIMSTYLE7
100
AcDbAlignedDimension
 13
11.4806623426
 23
8.258879776
 33
0.0
 14
12.4845521134
 24
16.9547242553
 34
0.0
 50
90.0
100
AcDbRotatedDimension
  0
DIMENSION
  5
4CD
330
1F
100
AcDbEntity
  8
0
  6
Continuous
 62
     7
370
     0
100
AcDbDimension
  2
*D86
 10
5.3895521134
 20
17.8395864619
 30
0.0
 11
9.3104894819
 21
17.8395864619
 31
0.0
 70
   160
 71
     2
 42
-1.0
  3
SLDDIMSTYLE7
100
AcDbAlignedDimension
 13
12.4845521134
 23
16.9547242553
 33
0.0
 14
5.3895521134
 24
16.9547242553
 34
0.0
 50
0.0
100
AcDbRotatedDimension
  0
DIMENSION
  5
4D7
330
1F
100
AcDbEntity
  8
0
  6
Continuous
 62
     7
370
     0
100
AcDbDimension
  2
*D87
 10
6.4932082159
 20
8.5113714756
 30
0.0
 11
4.8401516519
 21
7.3134209872
 31
0.0
 70
   163
  1
<>
 71
     1
 42
-1.0
  3
SLDDIMSTYLE3
100
AcDbDiametricDimension
 15
6.4183462367
 25
8.3813880764
 35
0.0
 40
0.0
  0
INSERT
  5
4E6
330
1F
100
AcDbEntity
  8
0
  6
Continuous
 62
     7
370
     0
100
AcDbBlockReference
  2
SW_NOTE_6
 10
8.1453844064
 20
14.1354618188
 30
0.0
  0
INSERT
  5
4F2
330
1F
100
AcDbEntity
  8
0
  6
Continuous
 62
     7
370
     0
100
AcDbBlockReference
  2
SW_CENTERMARKSYMBOL_28
 10
5.5770521134
 20
16.7672242553
 30
0.0
  0
INSERT
  5
4FE
330
1F
100
AcDbEntity
  8
0
  6
Continuous
 62
     7
370
     0
100
AcDbBlockReference
  2
SW_CENTERMARKSYMBOL_29
 10
8.9370521134
 20
16.7672242553
 30
0.0
  0
INSERT
  5
50A
330
1F
100
AcDbEntity
  8
0
  6
Continuous
 62
     7
370
     0
100
AcDbBlockReference
  2
SW_CENTERMARKSYMBOL_30
 10
12.2970521134
 20
16.7672242553
 30
0.0
  0
INSERT
  5
516
330
1F
100
AcDbEntity
  8
0
  6
Continuous
 62
     7
370
     0
100
AcDbBlockReference
  2
SW_CENTERMARKSYMBOL_31
 10
5.5770716785
 20
13.9621682369
 30
0.0
  0
INSERT
  5
522
330
1F
100
AcDbEntity
  8
0
  6
Continuous
 62
     7
370
     0
100
AcDbBlockReference
  2
SW_CENTERMARKSYMBOL_32
 10
12.2970327356
 20
13.9621682369
 30
0.0
  0
INSERT
  5
52E
330
1F
100
AcDbEntity
  8
0
  6
Continuous
 62
     7
370
     0
100
AcDbBlockReference
  2
SW_CENTERMARKSYMBOL_33
 10
5.7943581361
 20
11.1707365028
 30
0.0
  0
INSERT
  5
53A
330
1F
100
AcDbEntity
  8
0
  6
Continuous
 62
     7
370
     0
100
AcDbBlockReference
  2
SW_CENTERMARKSYMBOL_34
 10
12.079746278
 20
11.1707365028
 30
0.0
  0
INSERT
  5
546
330
1F
100
AcDbEntity
  8
0
  6
Continuous
 62
     7
370
     0
100
AcDbBlockReference
  2
SW_CENTERMARKSYMBOL_35
 10
6.4557772263
 20
8.446379776
 30
0.0
  0
INSERT
  5
552
330
1F
100
AcDbEntity
  8
0
  6
Continuous
 62
     7
370
     0
100
AcDbBlockReference
  2
SW_CENTERMARKSYMBOL_36
 10
8.9370521858
 20
8.446379776
 30
0.0
  0
INSERT
  5
55E
330
1F
100
AcDbEntity
  8
0
  6
Continuous
 62
     7
370
     0
100
AcDbBlockReference
  2
SW_CENTERMARKSYMBOL_37
 10
11.4183271453
 20
8.446379776
 30
0.0
  0
LINE
  5
55F
330
1F
100
AcDbEntity
  8
0
  6
Continuous
 62
     7
370
    15
100
AcDbLine
 10
3.5317154619
 20
13.4727273769
 30
0.0
 11
3.4517154619
 21
13.4727273769
 31
0.0
  0
LINE
  5
560
330
1F
100
AcDbEntity
  8
0
  6
Continuous
 62
     7
370
    15
100
AcDbLine
 10
3.5317154619
 20
11.3560778408
 30
0.0
 11
3.4517154619
 21
11.3560778408
 31
0.0
  0
SPLINE
  5
561
330
1F
100
AcDbEntity
  8
0
  6
Continuous
 62
     7
370
    15
100
AcDbSpline
210
0.0
220
0.0
230
1.0
 70
    24
 71
     3
 72
    10
 73
     6
 74
     0
 42
0.00000001
 43
0.00000001
 40
0.0
 40
0.0
 40
0.0
 40
0.0
 40
0.5
 40
0.5
 40
1.0
 40
1.0
 40
1.0
 40
1.0
 10
3.531715461860661
 20
11.35607784079494
 30
0.0
 10
3.531715461860621
 20
11.70550331751848
 30
0.0
 10
3.531715461860581
 20
12.0569176353484
 30
0.0
 10
3.531715461860499
 20
12.76360726373265
 30
0.0
 10
3.531715461860459
 20
13.11808859317674
 30
0.0
 10
3.531715461860417
 20
13.47272737685212
 30
0.0
  0
SPLINE
  5
562
330
1F
100
AcDbEntity
  8
0
  6
Continuous
 62
     7
370
    15
100
AcDbSpline
210
0.0
220
0.0
230
1.0
 70
    24
 71
     3
 72
    10
 73
     6
 74
     0
 42
0.00000001
 43
0.00000001
 40
0.0
 40
0.0
 40
0.0
 40
0.0
 40
0.5
 40
0.5
 40
1.0
 40
1.0
 40
1.0
 40
1.0
 10
3.451715461863483
 20
13.47272737685211
 30
0.0
 10
3.451715461863525
 20
13.11808859317673
 30
0.0
 10
3.451715461863565
 20
12.76360726373264
 30
0.0
 10
3.451715461863646
 20
12.0569176353484
 30
0.0
 10
3.451715461863686
 20
11.70550331751847
 30
0.0
 10
3.451715461863727
 20
11.35607784079493
 30
0.0
  0
LINE
  5
563
330
1F
100
AcDbEntity
  8
0
  6
Continuous
 62
     7
370
    15
100
AcDbLine
 10
3.5317154619
 20
16.4347242553
 30
0.0
 11
3.4517154619
 21
16.4347242553
 31
0.0
  0
LINE
  5
564
330
1F
100
AcDbEntity
  8
0
  6
Continuous
 62
     7
370
    15
100
AcDbLine
 10
3.5317154619
 20
13.4727272688
 30
0.0
 11
3.5317154619
 21
16.4347242553
 31
0.0
  0
LINE
  5
565
330
1F
100
AcDbEntity
  8
0
  6
Continuous
 62
     7
370
    15
100
AcDbLine
 10
3.4517154619
 20
16.4347242553
 30
0.0
 11
3.4517154619
 21
13.4727273769
 31
0.0
  0
LINE
  5
566
330
1F
100
AcDbEntity
  8
0
  6
Continuous
 62
     7
370
    15
100
AcDbLine
 10
3.5317154619
 20
8.3409867947
 30
0.0
 11
3.4517154619
 21
8.3409867947
 31
0.0
  0
SPLINE
  5
567
330
1F
100
AcDbEntity
  8
0
  6
Continuous
 62
     7
370
    15
100
AcDbSpline
210
0.0
220
0.0
230
1.0
 70
    24
 71
     3
 72
    10
 73
     6
 74
     0
 42
0.00000001
 43
0.00000001
 40
0.0
 40
0.0
 40
0.0
 40
0.0
 40
0.5
 40
0.5
 40
1.0
 40
1.0
 40
1.0
 40
1.0
 10
3.531715461861318
 20
8.340986794693876
 30
0.0
 10
3.531715461861261
 20
8.835238235612692
 30
0.0
 10
3.531715461861203
 20
9.333916393341402
 30
0.0
 10
3.531715461861088
 20
10.33988014736076
 30
0.0
 10
3.531715461861029
 20
10.84654882908046
 30
0.0
 10
3.53171546186097
 20
11.35607784079494
 30
0.0
  0
SPLINE
  5
568
330
1F
100
AcDbEntity
  8
0
  6
Continuous
 62
     7
370
    15
100
AcDbSpline
210
0.0
220
0.0
230
1.0
 70
    24
 71
     3
 72
    10
 73
     6
 74
     0
 42
0.00000001
 43
0.00000001
 40
0.0
 40
0.0
 40
0.0
 40
0.0
 40
0.5
 40
0.5
 40
1.0
 40
1.0
 40
1.0
 40
1.0
 10
3.451715461863727
 20
11.35607784079493
 30
0.0
 10
3.451715461863786
 20
10.84654882908045
 30
0.0
 10
3.451715461863845
 20
10.33988014736075
 30
0.0
 10
3.451715461863961
 20
9.333916393341394
 30
0.0
 10
3.451715461864019
 20
8.835238235612682
 30
0.0
 10
3.451715461864076
 20
8.340986794693865
 30
0.0
  0
LINE
  5
569
330
1F
100
AcDbEntity
  8
0
  6
Continuous
 62
     7
370
    15
100
AcDbLine
 10
3.5317154619
 20
8.258879776
 30
0.0
 11
3.4517154619
 21
8.258879776
 31
0.0
  0
SPLINE
  5
56A
330
1F
100
AcDbEntity
  8
0
  6
Continuous
 62
     7
370
    15
100
AcDbSpline
210
0.0
220
0.0
230
1.0
 70
    24
 71
     3
 72
    18
 73
    14
 74
     0
 42
0.00000001
 43
0.00000001
 40
0.0
 40
0.0
 40
0.0
 40
0.0
 40
0.124999999999991
 40
0.124999999999991
 40
0.249999999999982
 40
0.249999999999982
 40
0.374999999999973
 40
0.374999999999973
 40
0.499999999999964
 40
0.499999999999964
 40
0.749999999999982
 40
0.749999999999982
 40
1.0
 40
1.0
 40
1.0
 40
1.0
 10
3.531715461861336
 20
8.258879776039961
 30
0.0
 10
3.531715461861336
 20
8.25887977603996
 30
0.0
 10
3.531715461861335
 20
8.259447596415988
 30
0.0
 10
3.531715461861335
 20
8.261595910099206
 30
0.0
 10
3.531715461861335
 20
8.263170751950907
 30
0.0
 10
3.531715461861334
 20
8.267324010199216
 30
0.0
 10
3.531715461861334
 20
8.269930515116835
 30
0.0
 10
3.531715461861333
 20
8.275943069932492
 30
0.0
 10
3.531715461861333
 20
8.279334510032507
 30
0.0
 10
3.531715461861332
 20
8.290567425096857
 30
0.0
 10
3.531715461861331
 20
8.299651057653529
 30
0.0
 10
3.531715461861328
 20
8.31921125284861
 30
0.0
 10
3.531715461861328
 20
8.329743727050154
 30
0.0
 10
3.531715461861326
 20
8.340986794693876
 30
0.0
  0
SPLINE
  5
56B
330
1F
100
AcDbEntity
  8
0
  6
Continuous
 62
     7
370
    15
100
AcDbSpline
210
0.0
220
0.0
230
1.0
 70
    24
 71
     3
 72
    18
 73
    14
 74
     0
 42
0.00000001
 43
0.00000001
 40
0.0
 40
0.0
 40
0.0
 40
0.0
 40
0.250000000000018
 40
0.250000000000018
 40
0.500000000000036
 40
0.500000000000036
 40
0.625000000000027
 40
0.625000000000027
 40
0.750000000000018
 40
0.750000000000018
 40
0.875000000000009
 40
0.875000000000009
 40
1.0
 40
1.0
 40
1.0
 40
1.0
 10
3.451715461864076
 20
8.340986794693865
 30
0.0
 10
3.451715461864078
 20
8.329743727050143
 30
0.0
 10
3.451715461864079
 20
8.319211252848602
 30
0.0
 10
3.451715461864081
 20
8.299651057653518
 30
0.0
 10
3.451715461864082
 20
8.290567425096846
 30
0.0
 10
3.451715461864083
 20
8.279334510032497
 30
0.0
 10
3.451715461864083
 20
8.275943069932481
 30
0.0
 10
3.451715461864084
 20
8.269930515116824
 30
0.0
 10
3.451715461864084
 20
8.267324010199205
 30
0.0
 10
3.451715461864085
 20
8.263170751950899
 30
0.0
 10
3.451715461864085
 20
8.261595910099196
 30
0.0
 10
3.451715461864085
 20
8.259447596415978
 30
0.0
 10
3.451715461864087
 20
8.258879776039949
 30
0.0
 10
3.451715461864087
 20
8.25887977603995
 30
0.0
  0
DIMENSION
  5
56C
330
1F
100
AcDbEntity
  8
0
  6
Continuous
 62
     7
370
     0
100
AcDbDimension
  2
*D99
 10
3.4517154619
 20
7.8530024284
 30
0.0
 11
1.7381803213
 21
7.8530024284
 31
0.0
 70
   160
 71
     2
 42
-1.0
  3
SLDDIMSTYLE4
100
AcDbAlignedDimension
 13
3.5317154619
 23
8.258879776
 33
0.0
 14
3.4517154619
 24
8.258879776
 34
0.0
 50
0.0
100
AcDbRotatedDimension
  0
ENDSEC
  0
SECTION
  2
OBJECTS
  0
DICTIONARY
  5
C
330
0
100
AcDbDictionary
281
     1
  3
ACAD_GROUP
350
D
  3
ACAD_LAYOUT
350
1A
  3
ACAD_MLINESTYLE
350
17
  3
ACAD_PLOTSETTINGS
350
19
  3
ACAD_PLOTSTYLENAME
350
E
  3
ACAD_SCALELIST
350
9E
  3
AcDbVariableDictionary
350
578
  0
DICTIONARY
  5
D
102
{ACAD_REACTORS
330
C
102
}
330
C
100
AcDbDictionary
281
     1
  0
DICTIONARY
  5
1A
102
{ACAD_REACTORS
330
C
102
}
330
C
100
AcDbDictionary
281
     1
  3
Layout1
350
1E
  3
Layout2
350
26
  3
Model
350
22
  0
DICTIONARY
  5
17
102
{ACAD_REACTORS
330
C
102
}
330
C
100
AcDbDictionary
281
     1
  3
Standard
350
18
  0
DICTIONARY
  5
19
102
{ACAD_REACTORS
330
C
102
}
330
C
100
AcDbDictionary
281
     1
  0
ACDBDICTIONARYWDFLT
  5
E
102
{ACAD_REACTORS
330
C
102
}
330
C
100
AcDbDictionary
281
     1
  3
Normal
350
F
100
AcDbDictionaryWithDefault
340
F
  0
DICTIONARY
  5
9E
102
{ACAD_REACTORS
330
C
102
}
330
C
100
AcDbDictionary
281
     1
  3
A0
350
9F
  3
A1
350
A0
  3
A2
350
A1
  3
A3
350
A2
  3
A4
350
A3
  3
A5
350
A4
  3
A6
350
A5
  3
A7
350
A6
  3
A8
350
A7
  3
A9
350
A8
  3
B0
350
A9
  3
B1
350
AA
  3
B2
350
AB
  3
B3
350
AC
  3
B4
350
AD
  3
B5
350
AE
  3
B6
350
AF
  3
B7
350
B0
  3
B8
350
B1
  3
B9
350
B2
  3
C0
350
B3
  3
C1
350
B4
  3
C2
350
B5
  3
C3
350
B6
  3
C4
350
B7
  3
C5
350
B8
  3
C6
350
B9
  3
C7
350
BA
  3
C8
350
BB
  3
C9
350
BC
  3
D0
350
BD
  3
D1
350
BE
  3
D2
350
BF
  0
DICTIONARY
  5
578
102
{ACAD_REACTORS
330
C
102
}
330
C
100
AcDbDictionary
281
     1
  3
CANNOSCALE
350
579
  0
LAYOUT
  5
1E
102
{ACAD_REACTORS
330
1A
102
}
330
1A
100
AcDbPlotSettings
  1

  2
none_device
  4

  6

 40
0.0
 41
0.0
 42
0.0
 43
0.0
 44
0.0
 45
0.0
 46
0.0
 47
0.0
 48
0.0
 49
0.0
140
0.0
141
0.0
142
1.0
143
1.0
 70
   688
 72
     0
 73
     0
 74
     5
  7

 75
    16
147
1.0
148
0.0
149
0.0
100
AcDbLayout
  1
Layout1
 70
     1
 71
     1
 10
0.0
 20
0.0
 11
12.0
 21
9.0
 12
0.0
 22
0.0
 32
0.0
 14
1.0000000000E+20
 24
1.0000000000E+20
 34
1.0000000000E+20
 15
-1.0000000000E+20
 25
-1.0000000000E+20
 35
-1.0000000000E+20
146
0.0
 13
0.0
 23
0.0
 33
0.0
 16
1.0
 26
0.0
 36
0.0
 17
0.0
 27
1.0
 37
0.0
 76
     0
330
1B
  0
LAYOUT
  5
26
102
{ACAD_REACTORS
330
1A
102
}
330
1A
100
AcDbPlotSettings
  1

  2
none_device
  4

  6

 40
0.0
 41
0.0
 42
0.0
 43
0.0
 44
0.0
 45
0.0
 46
0.0
 47
0.0
 48
0.0
 49
0.0
140
0.0
141
0.0
142
1.0
143
1.0
 70
   688
 72
     0
 73
     0
 74
     5
  7

 75
    16
147
1.0
148
0.0
149
0.0
100
AcDbLayout
  1
Layout2
 70
     1
 71
     2
 10
0.0
 20
0.0
 11
0.0
 21
0.0
 12
0.0
 22
0.0
 32
0.0
 14
0.0
 24
0.0
 34
0.0
 15
0.0
 25
0.0
 35
0.0
146
0.0
 13
0.0
 23
0.0
 33
0.0
 16
1.0
 26
0.0
 36
0.0
 17
0.0
 27
1.0
 37
0.0
 76
     0
330
23
  0
LAYOUT
  5
22
102
{ACAD_REACTORS
330
1A
102
}
330
1A
100
AcDbPlotSettings
  1

  2
none_device
  4

  6

 40
0.0
 41
0.0
 42
0.0
 43
0.0
 44
0.0
 45
0.0
 46
0.0
 47
0.0
 48
0.0
 49
0.0
140
0.0
141
0.0
142
1.0
143
1.0
 70
  1712
 72
     0
 73
     0
 74
     0
  7

 75
     0
147
1.0
148
0.0
149
0.0
100
AcDbLayout
  1
Model
 70
     1
 71
     0
 10
0.0
 20
0.0
 11
44.0
 21
34.0
 12
0.0
 22
0.0
 32
0.0
 14
0.0
 24
0.0
 34
0.0
 15
44.0
 25
34.0
 35
0.0
146
0.0
 13
0.0
 23
0.0
 33
0.0
 16
1.0
 26
0.0
 36
0.0
 17
0.0
 27
1.0
 37
0.0
 76
     0
330
1F
331
29
  0
MLINESTYLE
  5
18
102
{ACAD_REACTORS
330
17
102
}
330
17
100
AcDbMlineStyle
  2
Standard
 70
     0
  3

 62
   256
 51
90.0
 52
90.0
 71
     2
 49
0.5
 62
   256
  6
BYLAYER
 49
-0.5
 62
   256
  6
BYLAYER
  0
ACDBPLACEHOLDER
  5
F
102
{ACAD_REACTORS
330
E
102
}
330
E
  0
SCALE
  5
9F
102
{ACAD_REACTORS
330
9E
102
}
330
9E
100
AcDbScale
 70
     0
300
1:1
140
1.0
141
1.0
290
     1
  0
SCALE
  5
A0
102
{ACAD_REACTORS
330
9E
102
}
330
9E
100
AcDbScale
 70
     0
300
1:2
140
1.0
141
2.0
290
     0
  0
SCALE
  5
A1
102
{ACAD_REACTORS
330
9E
102
}
330
9E
100
AcDbScale
 70
     0
300
1:4
140
1.0
141
4.0
290
     0
  0
SCALE
  5
A2
102
{ACAD_REACTORS
330
9E
102
}
330
9E
100
AcDbScale
 70
     0
300
1:5
140
1.0
141
5.0
290
     0
  0
SCALE
  5
A3
102
{ACAD_REACTORS
330
9E
102
}
330
9E
100
AcDbScale
 70
     0
300
1:8
140
1.0
141
8.0
290
     0
  0
SCALE
  5
A4
102
{ACAD_REACTORS
330
9E
102
}
330
9E
100
AcDbScale
 70
     0
300
1:10
140
1.0
141
10.0
290
     0
  0
SCALE
  5
A5
102
{ACAD_REACTORS
330
9E
102
}
330
9E
100
AcDbScale
 70
     0
300
1:16
140
1.0
141
16.0
290
     0
  0
SCALE
  5
A6
102
{ACAD_REACTORS
330
9E
102
}
330
9E
100
AcDbScale
 70
     0
300
1:20
140
1.0
141
20.0
290
     0
  0
SCALE
  5
A7
102
{ACAD_REACTORS
330
9E
102
}
330
9E
100
AcDbScale
 70
     0
300
1:30
140
1.0
141
30.0
290
     0
  0
SCALE
  5
A8
102
{ACAD_REACTORS
330
9E
102
}
330
9E
100
AcDbScale
 70
     0
300
1:40
140
1.0
141
40.0
290
     0
  0
SCALE
  5
A9
102
{ACAD_REACTORS
330
9E
102
}
330
9E
100
AcDbScale
 70
     0
300
1:50
140
1.0
141
50.0
290
     0
  0
SCALE
  5
AA
102
{ACAD_REACTORS
330
9E
102
}
330
9E
100
AcDbScale
 70
     0
300
1:100
140
1.0
141
100.0
290
     0
  0
SCALE
  5
AB
102
{ACAD_REACTORS
330
9E
102
}
330
9E
100
AcDbScale
 70
     0
300
2:1
140
2.0
141
1.0
290
     0
  0
SCALE
  5
AC
102
{ACAD_REACTORS
330
9E
102
}
330
9E
100
AcDbScale
 70
     0
300
4:1
140
4.0
141
1.0
290
     0
  0
SCALE
  5
AD
102
{ACAD_REACTORS
330
9E
102
}
330
9E
100
AcDbScale
 70
     0
300
8:1
140
8.0
141
1.0
290
     0
  0
SCALE
  5
AE
102
{ACAD_REACTORS
330
9E
102
}
330
9E
100
AcDbScale
 70
     0
300
10:1
140
10.0
141
1.0
290
     0
  0
SCALE
  5
AF
102
{ACAD_REACTORS
330
9E
102
}
330
9E
100
AcDbScale
 70
     0
300
100:1
140
100.0
141
1.0
290
     0
  0
SCALE
  5
B0
102
{ACAD_REACTORS
330
9E
102
}
330
9E
100
AcDbScale
 70
     0
300
1/128" = 1'-0"
140
0.0078125
141
12.0
290
     0
  0
SCALE
  5
B1
102
{ACAD_REACTORS
330
9E
102
}
330
9E
100
AcDbScale
 70
     0
300
1/64" = 1'-0"
140
0.015625
141
12.0
290
     0
  0
SCALE
  5
B2
102
{ACAD_REACTORS
330
9E
102
}
330
9E
100
AcDbScale
 70
     0
300
1/32" = 1'-0"
140
0.03125
141
12.0
290
     0
  0
SCALE
  5
B3
102
{ACAD_REACTORS
330
9E
102
}
330
9E
100
AcDbScale
 70
     0
300
1/16" = 1'-0"
140
0.0625
141
12.0
290
     0
  0
SCALE
  5
B4
102
{ACAD_REACTORS
330
9E
102
}
330
9E
100
AcDbScale
 70
     0
300
3/32" = 1'-0"
140
0.09375
141
12.0
290
     0
  0
SCALE
  5
B5
102
{ACAD_REACTORS
330
9E
102
}
330
9E
100
AcDbScale
 70
     0
300
1/8" = 1'-0"
140
0.125
141
12.0
290
     0
  0
SCALE
  5
B6
102
{ACAD_REACTORS
330
9E
102
}
330
9E
100
AcDbScale
 70
     0
300
3/16" = 1'-0"
140
0.1875
141
12.0
290
     0
  0
SCALE
  5
B7
102
{ACAD_REACTORS
330
9E
102
}
330
9E
100
AcDbScale
 70
     0
300
1/4" = 1'-0"
140
0.25
141
12.0
290
     0
  0
SCALE
  5
B8
102
{ACAD_REACTORS
330
9E
102
}
330
9E
100
AcDbScale
 70
     0
300
3/8" = 1'-0"
140
0.375
141
12.0
290
     0
  0
SCALE
  5
B9
102
{ACAD_REACTORS
330
9E
102
}
330
9E
100
AcDbScale
 70
     0
300
1/2" = 1'-0"
140
0.5
141
12.0
290
     0
  0
SCALE
  5
BA
102
{ACAD_REACTORS
330
9E
102
}
330
9E
100
AcDbScale
 70
     0
300
3/4" = 1'-0"
140
0.75
141
12.0
290
     0
  0
SCALE
  5
BB
102
{ACAD_REACTORS
330
9E
102
}
330
9E
100
AcDbScale
 70
     0
300
1" = 1'-0"
140
1.0
141
12.0
290
     0
  0
SCALE
  5
BC
102
{ACAD_REACTORS
330
9E
102
}
330
9E
100
AcDbScale
 70
     0
300
1-1/2" = 1'-0"
140
1.5
141
12.0
290
     0
  0
SCALE
  5
BD
102
{ACAD_REACTORS
330
9E
102
}
330
9E
100
AcDbScale
 70
     0
300
3" = 1'-0"
140
3.0
141
12.0
290
     0
  0
SCALE
  5
BE
102
{ACAD_REACTORS
330
9E
102
}
330
9E
100
AcDbScale
 70
     0
300
6" = 1'-0"
140
6.0
141
12.0
290
     0
  0
SCALE
  5
BF
102
{ACAD_REACTORS
330
9E
102
}
330
9E
100
AcDbScale
 70
     0
300
1'-0" = 1'-0"
140
12.0
141
12.0
290
     0
  0
DICTIONARYVAR
  5
579
102
{ACAD_REACTORS
330
578
102
}
330
578
100
DictionaryVariables
280
     0
  1
1:1
  0
ENDSEC
  0
EOF
