  0
SECTION
  2
HEADER
  9
$ACADVER
  1
AC1015
  9
$ACADMAINTVER
 70
     6
  9
$DWGCODEPAGE
  3
ANSI_1252
  9
$INSBASE
 10
0.0
 20
0.0
 30
0.0
  9
$EXTMIN
 10
10.26798838876022
 20
11.42584328811784
 30
0.0
  9
$EXTMAX
 10
34.4326960366993
 20
23.69455235319458
 30
0.0
  9
$LIMMIN
 10
0.0
 20
0.0
  9
$LIMMAX
 10
12.0
 20
9.0
  9
$ORTHOMODE
 70
     0
  9
$REGENMODE
 70
     1
  9
$FILLMODE
 70
     1
  9
$QTEXTMODE
 70
     0
  9
$MIRRTEXT
 70
     1
  9
$LTSCALE
 40
1.0
  9
$ATTMODE
 70
     1
  9
$TEXTSIZE
 40
1.384018512990483
  9
$TRACEWID
 40
0.05
  9
$TEXTSTYLE
  7
Standard
  9
$CLAYER
  8
0
  9
$CELTYPE
  6
ByLayer
  9
$CECOLOR
 62
   256
  9
$CELTSCALE
 40
1.0
  9
$DISPSILH
 70
     0
  9
$DIMSCALE
 40
1.0
  9
$DIMASZ
 40
0.18
  9
$DIMEXO
 40
0.0625
  9
$DIMDLI
 40
0.38
  9
$DIMRND
 40
0.0
  9
$DIMDLE
 40
0.0
  9
$DIMEXE
 40
0.18
  9
$DIMTP
 40
0.0
  9
$DIMTM
 40
0.0
  9
$DIMTXT
 40
0.18
  9
$DIMCEN
 40
0.09
  9
$DIMTSZ
 40
0.0
  9
$DIMTOL
 70
     0
  9
$DIMLIM
 70
     0
  9
$DIMTIH
 70
     1
  9
$DIMTOH
 70
     1
  9
$DIMSE1
 70
     0
  9
$DIMSE2
 70
     0
  9
$DIMTAD
 70
     0
  9
$DIMZIN
 70
     0
  9
$DIMBLK
  1

  9
$DIMASO
 70
     1
  9
$DIMSHO
 70
     1
  9
$DIMPOST
  1

  9
$DIMAPOST
  1

  9
$DIMALT
 70
     0
  9
$DIMALTD
 70
     2
  9
$DIMALTF
 40
25.4
  9
$DIMLFAC
 40
1.0
  9
$DIMTOFL
 70
     0
  9
$DIMTVP
 40
0.0
  9
$DIMTIX
 70
     0
  9
$DIMSOXD
 70
     0
  9
$DIMSAH
 70
     0
  9
$DIMBLK1
  1

  9
$DIMBLK2
  1

  9
$DIMSTYLE
  2
Standard
  9
$DIMCLRD
 70
     0
  9
$DIMCLRE
 70
     0
  9
$DIMCLRT
 70
     0
  9
$DIMTFAC
 40
1.0
  9
$DIMGAP
 40
0.09
  9
$DIMJUST
 70
     0
  9
$DIMSD1
 70
     0
  9
$DIMSD2
 70
     0
  9
$DIMTOLJ
 70
     1
  9
$DIMTZIN
 70
     0
  9
$DIMALTZ
 70
     0
  9
$DIMALTTZ
 70
     0
  9
$DIMUPT
 70
     0
  9
$DIMDEC
 70
     4
  9
$DIMTDEC
 70
     4
  9
$DIMALTU
 70
     2
  9
$DIMALTTD
 70
     2
  9
$DIMTXSTY
  7
Standard
  9
$DIMAUNIT
 70
     0
  9
$DIMADEC
 70
     0
  9
$DIMALTRND
 40
0.0
  9
$DIMAZIN
 70
     0
  9
$DIMDSEP
 70
    46
  9
$DIMATFIT
 70
     3
  9
$DIMFRAC
 70
     0
  9
$DIMLDRBLK
  1

  9
$DIMLUNIT
 70
     2
  9
$DIMLWD
 70
    -2
  9
$DIMLWE
 70
    -2
  9
$DIMTMOVE
 70
     0
  9
$LUNITS
 70
     2
  9
$LUPREC
 70
     4
  9
$SKETCHINC
 40
0.1
  9
$FILLETRAD
 40
0.5
  9
$AUNITS
 70
     0
  9
$AUPREC
 70
     0
  9
$MENU
  1
.
  9
$ELEVATION
 40
0.0
  9
$PELEVATION
 40
0.0
  9
$THICKNESS
 40
0.0
  9
$LIMCHECK
 70
     0
  9
$CHAMFERA
 40
0.5
  9
$CHAMFERB
 40
0.5
  9
$CHAMFERC
 40
1.0
  9
$CHAMFERD
 40
0.0
  9
$SKPOLY
 70
     0
  9
$TDCREATE
 40
2453353.550459155
  9
$TDUCREATE
 40
2453353.717125822
  9
$TDUPDATE
 40
2455097.393215428
  9
$TDUUPDATE
 40
2455097.559882095
  9
$TDINDWG
 40
0.0533332755
  9
$TDUSRTIMER
 40
0.0533332755
  9
$USRTIMER
 70
     1
  9
$ANGBASE
 50
0.0
  9
$ANGDIR
 70
     0
  9
$PDMODE
 70
     2
  9
$PDSIZE
 40
0.1
  9
$PLINEWID
 40
0.0
  9
$SPLFRAME
 70
     0
  9
$SPLINETYPE
 70
     6
  9
$SPLINESEGS
 70
     8
  9
$HANDSEED
  5
175
  9
$SURFTAB1
 70
     6
  9
$SURFTAB2
 70
     6
  9
$SURFTYPE
 70
     6
  9
$SURFU
 70
     6
  9
$SURFV
 70
     6
  9
$UCSBASE
  2

  9
$UCSNAME
  2

  9
$UCSORG
 10
0.0
 20
0.0
 30
0.0
  9
$UCSXDIR
 10
1.0
 20
0.0
 30
0.0
  9
$UCSYDIR
 10
0.0
 20
1.0
 30
0.0
  9
$UCSORTHOREF
  2

  9
$UCSORTHOVIEW
 70
     0
  9
$UCSORGTOP
 10
0.0
 20
0.0
 30
0.0
  9
$UCSORGBOTTOM
 10
0.0
 20
0.0
 30
0.0
  9
$UCSORGLEFT
 10
0.0
 20
0.0
 30
0.0
  9
$UCSORGRIGHT
 10
0.0
 20
0.0
 30
0.0
  9
$UCSORGFRONT
 10
0.0
 20
0.0
 30
0.0
  9
$UCSORGBACK
 10
0.0
 20
0.0
 30
0.0
  9
$PUCSBASE
  2

  9
$PUCSNAME
  2

  9
$PUCSORG
 10
0.0
 20
0.0
 30
0.0
  9
$PUCSXDIR
 10
1.0
 20
0.0
 30
0.0
  9
$PUCSYDIR
 10
0.0
 20
1.0
 30
0.0
  9
$PUCSORTHOREF
  2

  9
$PUCSORTHOVIEW
 70
     0
  9
$PUCSORGTOP
 10
0.0
 20
0.0
 30
0.0
  9
$PUCSORGBOTTOM
 10
0.0
 20
0.0
 30
0.0
  9
$PUCSORGLEFT
 10
0.0
 20
0.0
 30
0.0
  9
$PUCSORGRIGHT
 10
0.0
 20
0.0
 30
0.0
  9
$PUCSORGFRONT
 10
0.0
 20
0.0
 30
0.0
  9
$PUCSORGBACK
 10
0.0
 20
0.0
 30
0.0
  9
$USERI1
 70
     0
  9
$USERI2
 70
     0
  9
$USERI3
 70
     0
  9
$USERI4
 70
     0
  9
$USERI5
 70
     0
  9
$USERR1
 40
0.0
  9
$USERR2
 40
0.0
  9
$USERR3
 40
0.0
  9
$USERR4
 40
0.0
  9
$USERR5
 40
0.0
  9
$WORLDVIEW
 70
     1
  9
$SHADEDGE
 70
     3
  9
$SHADEDIF
 70
    70
  9
$TILEMODE
 70
     1
  9
$MAXACTVP
 70
    64
  9
$PINSBASE
 10
0.0
 20
0.0
 30
0.0
  9
$PLIMCHECK
 70
     0
  9
$PEXTMIN
 10
1.000000000000000E+20
 20
1.000000000000000E+20
 30
1.000000000000000E+20
  9
$PEXTMAX
 10
-1.000000000000000E+20
 20
-1.000000000000000E+20
 30
-1.000000000000000E+20
  9
$PLIMMIN
 10
0.0
 20
0.0
  9
$PLIMMAX
 10
12.0
 20
9.0
  9
$UNITMODE
 70
     0
  9
$VISRETAIN
 70
     1
  9
$PLINEGEN
 70
     0
  9
$PSLTSCALE
 70
     1
  9
$TREEDEPTH
 70
  3020
  9
$CMLSTYLE
  2
Standard
  9
$CMLJUST
 70
     0
  9
$CMLSCALE
 40
1.0
  9
$PROXYGRAPHICS
 70
     1
  9
$MEASUREMENT
 70
     0
  9
$CELWEIGHT
370
    -1
  9
$ENDCAPS
280
     0
  9
$JOINSTYLE
280
     0
  9
$LWDISPLAY
290
     0
  9
$INSUNITS
 70
     1
  9
$HYPERLINKBASE
  1

  9
$STYLESHEET
  1

  9
$XEDIT
290
     0
  9
$CEPSNTYPE
380
     0
  9
$PSTYLEMODE
290
     1
  9
$FINGERPRINTGUID
  2
{38D0AC08-CAD0-49D0-859C-F420C6890E34}
  9
$VERSIONGUID
  2
{FAEB1C32-E019-11D5-929B-00C0DF256EC4}
  9
$EXTNAMES
290
     1
  9
$PSVPSCALE
 40
0.0
  9
$OLESTARTUP
290
     0
  0
ENDSEC
  0
SECTION
  2
CLASSES
  0
CLASS
  1
ACDBDICTIONARYWDFLT
  2
AcDbDictionaryWithDefault
  3
ObjectDBX Classes
 90
        0
280
     0
281
     0
  0
CLASS
  1
ACDBPLACEHOLDER
  2
AcDbPlaceHolder
  3
ObjectDBX Classes
 90
        0
280
     0
281
     0
  0
CLASS
  1
LAYOUT
  2
AcDbLayout
  3
ObjectDBX Classes
 90
        0
280
     0
281
     0
  0
CLASS
  1
DICTIONARYVAR
  2
AcDbDictionaryVar
  3
ObjectDBX Classes
 90
        0
280
     0
281
     0
  0
CLASS
  1
TABLESTYLE
  2
AcDbTableStyle
  3
ObjectDBX Classes
 90
     4095
280
     0
281
     0
  0
CLASS
  1
SCALE
  2
AcDbScale
  3
ObjectDBX Classes
 90
     1153
280
     0
281
     0
  0
CLASS
  1
VISUALSTYLE
  2
AcDbVisualStyle
  3
ObjectDBX Classes
 90
     4095
280
     0
281
     0
  0
ENDSEC
  0
SECTION
  2
TABLES
  0
TABLE
  2
VPORT
  5
8
330
0
100
AcDbSymbolTable
 70
     2
  0
VPORT
  5
97
330
8
100
AcDbSymbolTableRecord
100
AcDbViewportTableRecord
  2
*Active
 70
     0
 10
0.0
 20
0.0
 11
1.0
 21
1.0
 12
23.74885464922531
 22
17.07963906681902
 13
0.0
 23
0.0
 14
0.5
 24
0.5
 15
0.5
 25
0.5
 16
0.0
 26
0.0
 36
1.0
 17
0.0
 27
0.0
 37
0.0
 40
20.31899077856633
 41
1.972972972850328
 42
50.0
 43
0.0
 44
0.0
 50
0.0
 51
0.0
 71
    16
 72
   100
 73
     1
 74
     3
 75
     0
 76
     0
 77
     0
 78
     0
281
     0
 65
     0
110
0.0
120
0.0
130
0.0
111
1.0
121
0.0
131
0.0
112
0.0
122
1.0
132
0.0
 79
     0
146
0.0
  0
ENDTAB
  0
TABLE
  2
LTYPE
  5
5
330
0
100
AcDbSymbolTable
 70
     5
  0
LTYPE
  5
14
330
5
100
AcDbSymbolTableRecord
100
AcDbLinetypeTableRecord
  2
ByBlock
 70
     0
  3

 72
    65
 73
     0
 40
0.0
  0
LTYPE
  5
15
330
5
100
AcDbSymbolTableRecord
100
AcDbLinetypeTableRecord
  2
ByLayer
 70
     0
  3

 72
    65
 73
     0
 40
0.0
  0
LTYPE
  5
16
330
5
100
AcDbSymbolTableRecord
100
AcDbLinetypeTableRecord
  2
Continuous
 70
     0
  3
Solid line
 72
    65
 73
     0
 40
0.0
  0
LTYPE
  5
15D
330
5
100
AcDbSymbolTableRecord
100
AcDbLinetypeTableRecord
  2
Continuous2
 70
     0
  3
Solid Line
 72
    65
 73
     0
 40
0.0
  0
LTYPE
  5
15E
330
5
100
AcDbSymbolTableRecord
100
AcDbLinetypeTableRecord
  2
DASHED
 70
     0
  3
__ __ __ __ __ __ __ __ __ __ __ __ __ __ __ __
 72
    83
 73
     2
 40
0.5
 49
0.375
 74
     4
 75
     0
340
0
 46
1.0
 50
0.0
 44
0.0
 45
0.0
 49
-0.125
 74
     4
 75
     0
340
0
 46
1.0
 50
0.0
 44
0.0
 45
0.0
  0
LTYPE
  5
15F
330
5
100
AcDbSymbolTableRecord
100
AcDbLinetypeTableRecord
  2
CENTER
 70
     0
  3
____ _ ____ _ ____ _ ____ _ ____ _ ____ _ ____ _
 72
    83
 73
     4
 40
1.0
 49
0.625
 74
     4
 75
     0
340
0
 46
1.0
 50
0.0
 44
0.0
 45
0.0
 49
-0.125
 74
     4
 75
     0
340
0
 46
1.0
 50
0.0
 44
0.0
 45
0.0
 49
0.125
 74
     4
 75
     0
340
0
 46
1.0
 50
0.0
 44
0.0
 45
0.0
 49
-0.125
 74
     4
 75
     0
340
0
 46
1.0
 50
0.0
 44
0.0
 45
0.0
  0
LTYPE
  5
160
330
5
100
AcDbSymbolTableRecord
100
AcDbLinetypeTableRecord
  2
PHANTOM
 70
     0
  3
___ _ _ ___ _ _ ___ _ _ ___ _ _ ___ _ _ ___ _ _ 
 72
    83
 73
     6
 40
0.9999999999999999
 49
0.5
 74
     4
 75
     0
340
0
 46
1.0
 50
0.0
 44
0.0
 45
0.0
 49
-0.1
 74
     4
 75
     0
340
0
 46
1.0
 50
0.0
 44
0.0
 45
0.0
 49
0.1
 74
     4
 75
     0
340
0
 46
1.0
 50
0.0
 44
0.0
 45
0.0
 49
-0.1
 74
     4
 75
     0
340
0
 46
1.0
 50
0.0
 44
0.0
 45
0.0
 49
0.1
 74
     4
 75
     0
340
0
 46
1.0
 50
0.0
 44
0.0
 45
0.0
 49
-0.1
 74
     4
 75
     0
340
0
 46
1.0
 50
0.0
 44
0.0
 45
0.0
  0
ENDTAB
  0
TABLE
  2
LAYER
  5
2
330
0
100
AcDbSymbolTable
 70
     3
  0
LAYER
  5
10
330
2
100
AcDbSymbolTableRecord
100
AcDbLayerTableRecord
  2
0
 70
     0
 62
     7
  6
Continuous
370
    -3
390
F
  0
LAYER
  5
40
330
2
100
AcDbSymbolTableRecord
100
AcDbLayerTableRecord
  2
FORMAT
 70
     0
 62
    -1
  6
Continuous
370
    -3
390
F
  0
LAYER
  5
41
330
2
100
AcDbSymbolTableRecord
100
AcDbLayerTableRecord
  2
DEFPOINTS
 70
     0
 62
    -1
  6
Continuous
290
     0
370
    -3
390
F
  0
ENDTAB
  0
TABLE
  2
STYLE
  5
3
330
0
100
AcDbSymbolTable
 70
     1
  0
STYLE
  5
11
330
3
100
AcDbSymbolTableRecord
100
AcDbTextStyleTableRecord
  2
Standard
 70
     0
 40
0.0
 41
1.0
 50
0.0
 71
     0
 42
0.2
  3
txt
  4

  0
ENDTAB
  0
TABLE
  2
VIEW
  5
6
330
0
100
AcDbSymbolTable
 70
     0
  0
ENDTAB
  0
TABLE
  2
UCS
  5
7
330
0
100
AcDbSymbolTable
 70
     0
  0
ENDTAB
  0
TABLE
  2
APPID
  5
9
330
0
100
AcDbSymbolTable
 70
     2
  0
APPID
  5
12
330
9
100
AcDbSymbolTableRecord
100
AcDbRegAppTableRecord
  2
ACAD
 70
     0
  0
APPID
  5
15C
330
9
100
AcDbSymbolTableRecord
100
AcDbRegAppTableRecord
  2
Mastercam X4
 70
     0
  0
ENDTAB
  0
TABLE
  2
DIMSTYLE
  5
A
330
0
100
AcDbSymbolTable
 70
     1
100
AcDbDimStyleTable
  0
DIMSTYLE
105
27
102
{ACAD_REACTORS
330
91
330
109
330
10A
330
C5
330
113
102
}
330
A
100
AcDbSymbolTableRecord
100
AcDbDimStyleTableRecord
  2
Standard
 70
     0
340
11
  0
ENDTAB
  0
TABLE
  2
BLOCK_RECORD
  5
1
330
0
100
AcDbSymbolTable
 70
     7
  0
BLOCK_RECORD
  5
1F
102
{ACAD_XDICTIONARY
360
16F
102
}
330
1
100
AcDbSymbolTableRecord
100
AcDbBlockTableRecord
  2
*Model_Space
340
22
  0
BLOCK_RECORD
  5
73
330
1
100
AcDbSymbolTableRecord
100
AcDbBlockTableRecord
  2
*Paper_Space
340
74
  0
BLOCK_RECORD
  5
23
330
1
100
AcDbSymbolTableRecord
100
AcDbBlockTableRecord
  2
*Paper_Space0
340
26
  0
BLOCK_RECORD
  5
DF
330
1
100
AcDbSymbolTableRecord
100
AcDbBlockTableRecord
  2
*D1
340
0
  0
BLOCK_RECORD
  5
E2
330
1
100
AcDbSymbolTableRecord
100
AcDbBlockTableRecord
  2
*D2
340
0
  0
BLOCK_RECORD
  5
E5
330
1
100
AcDbSymbolTableRecord
100
AcDbBlockTableRecord
  2
*D3
340
0
  0
BLOCK_RECORD
  5
C4
330
1
100
AcDbSymbolTableRecord
100
AcDbBlockTableRecord
  2
*D4
340
0
  0
BLOCK_RECORD
  5
D1
330
1
100
AcDbSymbolTableRecord
100
AcDbBlockTableRecord
  2
*D5
340
0
  0
BLOCK_RECORD
  5
11F
330
1
100
AcDbSymbolTableRecord
100
AcDbBlockTableRecord
  2
*D6
340
0
  0
ENDTAB
  0
ENDSEC
  0
SECTION
  2
BLOCKS
  0
BLOCK
  5
20
330
1F
100
AcDbEntity
  8
0
100
AcDbBlockBegin
  2
*Model_Space
 70
     0
 10
0.0
 20
0.0
 30
0.0
  3
*Model_Space
  1

  0
ENDBLK
  5
21
330
1F
100
AcDbEntity
  8
0
100
AcDbBlockEnd
  0
BLOCK
  5
75
330
73
100
AcDbEntity
 67
     1
  8
0
100
AcDbBlockBegin
  2
*Paper_Space
 70
     0
 10
0.0
 20
0.0
 30
0.0
  3
*Paper_Space
  1

  0
ENDBLK
  5
76
330
73
100
AcDbEntity
 67
     1
  8
0
100
AcDbBlockEnd
  0
BLOCK
  5
161
102
{ACAD_REACTORS
330
91
330
109
330
10A
330
C5
330
113
102
}
330
23
100
AcDbEntity
  8
0
100
AcDbBlockBegin
  2
*Paper_Space0
 70
     0
 10
0.0
 20
0.0
 30
0.0
  3
*Paper_Space0
  1

  0
ENDBLK
  5
162
330
23
100
AcDbEntity
  8
0
100
AcDbBlockEnd
  0
BLOCK
  5
163
330
DF
100
AcDbEntity
  8
0
100
AcDbBlockBegin
  2
*D1
 70
     1
 10
0.0
 20
0.0
 30
0.0
  3
*D1
  1

  0
POINT
  5
EC
330
DF
100
AcDbEntity
  8
DEFPOINTS
  6
ByBlock
 62
     0
100
AcDbPoint
 10
10.7679584108
 20
13.44990856034275
 30
0.0
  0
POINT
  5
94
330
DF
100
AcDbEntity
  8
DEFPOINTS
  6
ByBlock
 62
     0
100
AcDbPoint
 10
32.8649243714
 20
13.44990856034275
 30
0.0
  0
LINE
  5
95
330
DF
100
AcDbEntity
  8
0
  6
ByBlock
 62
     0
370
    -2
100
AcDbLine
 10
10.7679584108
 20
13.38740856034275
 30
0.0
 11
10.7679584108
 21
11.42584328811784
 31
0.0
  0
LINE
  5
96
330
DF
100
AcDbEntity
  8
0
  6
ByBlock
 62
     0
370
    -2
100
AcDbLine
 10
32.8649243714
 20
13.38740856034275
 30
0.0
 11
32.8649243714
 21
11.42584328811784
 31
0.0
  0
LINE
  5
ED
330
DF
100
AcDbEntity
  8
0
  6
ByBlock
 62
     0
370
    -2
100
AcDbLine
 10
10.9479584108
 20
11.60584328811784
 30
0.0
 11
21.2170413911
 21
11.60584328811784
 31
0.0
  0
SOLID
  5
EE
330
DF
100
AcDbEntity
  8
0
  6
ByBlock
 62
     0
100
AcDbTrace
 10
10.7679584108
 20
11.60584328811784
 30
0.0
 11
10.9479584108
 21
11.57584328811783
 31
0.0
 12
10.9479584108
 22
11.63584328811785
 32
0.0
 13
10.9479584108
 23
11.63584328811785
 33
0.0
  0
LINE
  5
EF
330
DF
100
AcDbEntity
  8
0
  6
ByBlock
 62
     0
370
    -2
100
AcDbLine
 10
32.6849243714
 20
11.60584328811784
 30
0.0
 11
22.4158413911
 21
11.60584328811784
 31
0.0
  0
SOLID
  5
F0
330
DF
100
AcDbEntity
  8
0
  6
ByBlock
 62
     0
100
AcDbTrace
 10
32.8649243714
 20
11.60584328811784
 30
0.0
 11
32.6849243714
 21
11.57584328811783
 31
0.0
 12
32.6849243714
 22
11.63584328811785
 32
0.0
 13
32.6849243714
 23
11.63584328811785
 33
0.0
  0
MTEXT
  5
F1
330
DF
100
AcDbEntity
  8
0
  6
ByBlock
 62
     0
100
AcDbMText
 10
21.8164413911
 20
11.60584328811784
 30
0.0
 40
0.18
 41
0.0
 71
     5
 72
     1
  1
22.0970
 73
     1
 44
1.0
  0
ENDBLK
  5
164
330
DF
100
AcDbEntity
  8
0
100
AcDbBlockEnd
  0
BLOCK
  5
165
330
E2
100
AcDbEntity
  8
0
100
AcDbBlockBegin
  2
*D2
 70
     1
 10
0.0
 20
0.0
 30
0.0
  3
*D2
  1

  0
POINT
  5
F2
330
E2
100
AcDbEntity
  8
DEFPOINTS
  6
ByBlock
 62
     0
100
AcDbPoint
 10
32.27870425107498
 20
12.04925127714099
 30
0.0
  0
POINT
  5
F3
330
E2
100
AcDbEntity
  8
DEFPOINTS
  6
ByBlock
 62
     0
100
AcDbPoint
 10
32.27870425107498
 20
23.1945523532
 30
0.0
  0
LINE
  5
F4
330
E2
100
AcDbEntity
  8
0
  6
ByBlock
 62
     0
370
    -2
100
AcDbLine
 10
32.34120425107498
 20
12.04925127714099
 30
0.0
 11
34.31452475561915
 21
12.04925127714099
 31
0.0
  0
LINE
  5
F5
330
E2
100
AcDbEntity
  8
0
  6
ByBlock
 62
     0
370
    -2
100
AcDbLine
 10
32.34120425107498
 20
23.1945523532
 30
0.0
 11
34.31452475561915
 21
23.1945523532
 31
0.0
  0
LINE
  5
F6
330
E2
100
AcDbEntity
  8
0
  6
ByBlock
 62
     0
370
    -2
100
AcDbLine
 10
34.13452475561915
 20
12.22925127714099
 30
0.0
 11
34.13452475561915
 21
17.4419018151705
 31
0.0
  0
SOLID
  5
F7
330
E2
100
AcDbEntity
  8
0
  6
ByBlock
 62
     0
100
AcDbTrace
 10
34.13452475561915
 20
12.04925127714099
 30
0.0
 11
34.16452475561915
 21
12.22925127714099
 31
0.0
 12
34.10452475561914
 22
12.22925127714099
 32
0.0
 13
34.10452475561914
 23
12.22925127714099
 33
0.0
  0
LINE
  5
F8
330
E2
100
AcDbEntity
  8
0
  6
ByBlock
 62
     0
370
    -2
100
AcDbLine
 10
34.13452475561915
 20
23.0145523532
 30
0.0
 11
34.13452475561915
 21
17.8019018151705
 31
0.0
  0
SOLID
  5
F9
330
E2
100
AcDbEntity
  8
0
  6
ByBlock
 62
     0
100
AcDbTrace
 10
34.13452475561915
 20
23.1945523532
 30
0.0
 11
34.16452475561915
 21
23.0145523532
 31
0.0
 12
34.10452475561914
 22
23.0145523532
 32
0.0
 13
34.10452475561914
 23
23.0145523532
 33
0.0
  0
MTEXT
  5
FA
330
E2
100
AcDbEntity
  8
0
  6
ByBlock
 62
     0
100
AcDbMText
 10
34.13452475561915
 20
17.6219018151705
 30
0.0
 40
0.18
 41
0.0
 71
     5
 72
     1
  1
11.1453
 73
     1
 44
1.0
  0
ENDBLK
  5
166
330
E2
100
AcDbEntity
  8
0
100
AcDbBlockEnd
  0
BLOCK
  5
167
330
E5
100
AcDbEntity
  8
0
100
AcDbBlockBegin
  2
*D3
 70
     1
 10
0.0
 20
0.0
 30
0.0
  3
*D3
  1

  0
POINT
  5
FB
330
E5
100
AcDbEntity
  8
DEFPOINTS
  6
ByBlock
 62
     0
100
AcDbPoint
 10
28.8164417178
 20
12.7667512771
 30
0.0
  0
POINT
  5
FC
330
E5
100
AcDbEntity
  8
DEFPOINTS
  6
ByBlock
 62
     0
100
AcDbPoint
 10
32.6474250108
 20
12.7667512771
 30
0.0
  0
LINE
  5
FD
330
E5
100
AcDbEntity
  8
0
  6
ByBlock
 62
     0
370
    -2
100
AcDbLine
 10
28.8164417178
 20
12.7042512771
 30
0.0
 11
28.8164417178
 21
11.65316051511606
 31
0.0
  0
LINE
  5
FE
330
E5
100
AcDbEntity
  8
0
  6
ByBlock
 62
     0
370
    -2
100
AcDbLine
 10
32.6474250108
 20
12.7042512771
 30
0.0
 11
32.6474250108
 21
11.65316051511606
 31
0.0
  0
LINE
  5
FF
330
E5
100
AcDbEntity
  8
0
  6
ByBlock
 62
     0
370
    -2
100
AcDbLine
 10
28.9964417178
 20
11.83316051511606
 30
0.0
 11
30.2369333643
 21
11.83316051511606
 31
0.0
  0
SOLID
  5
100
330
E5
100
AcDbEntity
  8
0
  6
ByBlock
 62
     0
100
AcDbTrace
 10
28.8164417178
 20
11.83316051511606
 30
0.0
 11
28.9964417178
 21
11.80316051511605
 31
0.0
 12
28.9964417178
 22
11.86316051511607
 32
0.0
 13
28.9964417178
 23
11.86316051511607
 33
0.0
  0
LINE
  5
101
330
E5
100
AcDbEntity
  8
0
  6
ByBlock
 62
     0
370
    -2
100
AcDbLine
 10
32.4674250108
 20
11.83316051511606
 30
0.0
 11
31.2269333643
 21
11.83316051511606
 31
0.0
  0
SOLID
  5
102
330
E5
100
AcDbEntity
  8
0
  6
ByBlock
 62
     0
100
AcDbTrace
 10
32.6474250108
 20
11.83316051511606
 30
0.0
 11
32.4674250108
 21
11.80316051511605
 31
0.0
 12
32.4674250108
 22
11.86316051511607
 32
0.0
 13
32.4674250108
 23
11.86316051511607
 33
0.0
  0
MTEXT
  5
103
330
E5
100
AcDbEntity
  8
0
  6
ByBlock
 62
     0
100
AcDbMText
 10
30.7319333643
 20
11.83316051511606
 30
0.0
 40
0.18
 41
0.0
 71
     5
 72
     1
  1
3.8310
 73
     1
 44
1.0
  0
ENDBLK
  5
168
330
E5
100
AcDbEntity
  8
0
100
AcDbBlockEnd
  0
BLOCK
  5
169
330
C4
100
AcDbEntity
  8
0
100
AcDbBlockBegin
  2
*D4
 70
     1
 10
0.0
 20
0.0
 30
0.0
  3
*D4
  1

  0
POINT
  5
104
330
C4
100
AcDbEntity
  8
DEFPOINTS
  6
ByBlock
 62
     0
100
AcDbPoint
 10
28.8164417178
 20
12.7667512771
 30
0.0
  0
POINT
  5
BB
330
C4
100
AcDbEntity
  8
DEFPOINTS
  6
ByBlock
 62
     0
100
AcDbPoint
 10
25.3164417178
 20
12.7667512771
 30
0.0
  0
LINE
  5
BC
330
C4
100
AcDbEntity
  8
0
  6
ByBlock
 62
     0
370
    -2
100
AcDbLine
 10
28.8164417178
 20
12.7042512771
 30
0.0
 11
28.8164417178
 21
11.65088540573278
 31
0.0
  0
LINE
  5
BD
330
C4
100
AcDbEntity
  8
0
  6
ByBlock
 62
     0
370
    -2
100
AcDbLine
 10
25.3164417178
 20
12.7042512771
 30
0.0
 11
25.3164417178
 21
11.65088540573278
 31
0.0
  0
LINE
  5
BE
330
C4
100
AcDbEntity
  8
0
  6
ByBlock
 62
     0
370
    -2
100
AcDbLine
 10
28.6364417178
 20
11.83088540573278
 30
0.0
 11
27.5605417178
 21
11.83088540573278
 31
0.0
  0
SOLID
  5
BF
330
C4
100
AcDbEntity
  8
0
  6
ByBlock
 62
     0
100
AcDbTrace
 10
28.8164417178
 20
11.83088540573278
 30
0.0
 11
28.6364417178
 21
11.86088540573278
 31
0.0
 12
28.6364417178
 22
11.80088540573277
 32
0.0
 13
28.6364417178
 23
11.80088540573277
 33
0.0
  0
LINE
  5
C0
330
C4
100
AcDbEntity
  8
0
  6
ByBlock
 62
     0
370
    -2
100
AcDbLine
 10
25.4964417178
 20
11.83088540573278
 30
0.0
 11
26.5723417178
 21
11.83088540573278
 31
0.0
  0
SOLID
  5
C1
330
C4
100
AcDbEntity
  8
0
  6
ByBlock
 62
     0
100
AcDbTrace
 10
25.3164417178
 20
11.83088540573278
 30
0.0
 11
25.4964417178
 21
11.86088540573278
 31
0.0
 12
25.4964417178
 22
11.80088540573277
 32
0.0
 13
25.4964417178
 23
11.80088540573277
 33
0.0
  0
MTEXT
  5
C2
330
C4
100
AcDbEntity
  8
0
  6
ByBlock
 62
     0
100
AcDbMText
 10
27.0664417178
 20
11.83088540573278
 30
0.0
 40
0.18
 41
0.0
 71
     5
 72
     1
  1
3.5000
 73
     1
 44
1.0
  0
ENDBLK
  5
16A
330
C4
100
AcDbEntity
  8
0
100
AcDbBlockEnd
  0
BLOCK
  5
16B
330
D1
100
AcDbEntity
  8
0
100
AcDbBlockBegin
  2
*D5
 70
     1
 10
0.0
 20
0.0
 30
0.0
  3
*D5
  1

  0
POINT
  5
C7
330
D1
100
AcDbEntity
  8
DEFPOINTS
  6
ByBlock
 62
     0
100
AcDbPoint
 10
10.9854584248
 20
12.7667512771
 30
0.0
  0
POINT
  5
C8
330
D1
100
AcDbEntity
  8
DEFPOINTS
  6
ByBlock
 62
     0
100
AcDbPoint
 10
14.8164417178
 20
12.7667512771
 30
0.0
  0
LINE
  5
C9
330
D1
100
AcDbEntity
  8
0
  6
ByBlock
 62
     0
370
    -2
100
AcDbLine
 10
10.9854584248
 20
12.7042512771
 30
0.0
 11
10.9854584248
 21
11.63896790053594
 31
0.0
  0
LINE
  5
CA
330
D1
100
AcDbEntity
  8
0
  6
ByBlock
 62
     0
370
    -2
100
AcDbLine
 10
14.8164417178
 20
12.7042512771
 30
0.0
 11
14.8164417178
 21
11.63896790053594
 31
0.0
  0
LINE
  5
CB
330
D1
100
AcDbEntity
  8
0
  6
ByBlock
 62
     0
370
    -2
100
AcDbLine
 10
11.1654584248
 20
11.81896790053594
 30
0.0
 11
12.4059500713
 21
11.81896790053594
 31
0.0
  0
SOLID
  5
CC
330
D1
100
AcDbEntity
  8
0
  6
ByBlock
 62
     0
100
AcDbTrace
 10
10.9854584248
 20
11.81896790053594
 30
0.0
 11
11.1654584248
 21
11.78896790053593
 31
0.0
 12
11.1654584248
 22
11.84896790053595
 32
0.0
 13
11.1654584248
 23
11.84896790053595
 33
0.0
  0
LINE
  5
CD
330
D1
100
AcDbEntity
  8
0
  6
ByBlock
 62
     0
370
    -2
100
AcDbLine
 10
14.6364417178
 20
11.81896790053594
 30
0.0
 11
13.3959500713
 21
11.81896790053594
 31
0.0
  0
SOLID
  5
CE
330
D1
100
AcDbEntity
  8
0
  6
ByBlock
 62
     0
100
AcDbTrace
 10
14.8164417178
 20
11.81896790053594
 30
0.0
 11
14.6364417178
 21
11.78896790053593
 31
0.0
 12
14.6364417178
 22
11.84896790053595
 32
0.0
 13
14.6364417178
 23
11.84896790053595
 33
0.0
  0
MTEXT
  5
CF
330
D1
100
AcDbEntity
  8
0
  6
ByBlock
 62
     0
100
AcDbMText
 10
12.9009500713
 20
11.81896790053594
 30
0.0
 40
0.18
 41
0.0
 71
     5
 72
     1
  1
3.8310
 73
     1
 44
1.0
  0
ENDBLK
  5
16C
330
D1
100
AcDbEntity
  8
0
100
AcDbBlockEnd
  0
BLOCK
  5
16D
330
11F
100
AcDbEntity
  8
0
100
AcDbBlockBegin
  2
*D6
 70
     1
 10
0.0
 20
0.0
 30
0.0
  3
*D6
  1

  0
POINT
  5
115
330
11F
100
AcDbEntity
  8
DEFPOINTS
  6
ByBlock
 62
     0
100
AcDbPoint
 10
32.7255574481
 20
12.549251272
 30
0.0
  0
POINT
  5
116
330
11F
100
AcDbEntity
  8
DEFPOINTS
  6
ByBlock
 62
     0
100
AcDbPoint
 10
32.7250951601
 20
23.1945523532
 30
0.0
  0
LINE
  5
117
330
11F
100
AcDbEntity
  8
0
  6
ByBlock
 62
     0
370
    -2
100
AcDbLine
 10
32.7880574481
 20
12.549251272
 30
0.0
 11
34.11769603669929
 21
12.549251272
 31
0.0
  0
LINE
  5
118
330
11F
100
AcDbEntity
  8
0
  6
ByBlock
 62
     0
370
    -2
100
AcDbLine
 10
32.7875951601
 20
23.1945523532
 30
0.0
 11
34.11769603669929
 21
23.1945523532
 31
0.0
  0
LINE
  5
119
330
11F
100
AcDbEntity
  8
0
  6
ByBlock
 62
     0
370
    -2
100
AcDbLine
 10
33.93769603669929
 20
12.729251272
 30
0.0
 11
33.93769603669929
 21
17.6919018126
 31
0.0
  0
SOLID
  5
11A
330
11F
100
AcDbEntity
  8
0
  6
ByBlock
 62
     0
100
AcDbTrace
 10
33.93769603669929
 20
12.549251272
 30
0.0
 11
33.9676960366993
 21
12.729251272
 31
0.0
 12
33.90769603669929
 22
12.729251272
 32
0.0
 13
33.90769603669929
 23
12.729251272
 33
0.0
  0
LINE
  5
11B
330
11F
100
AcDbEntity
  8
0
  6
ByBlock
 62
     0
370
    -2
100
AcDbLine
 10
33.93769603669929
 20
23.0145523532
 30
0.0
 11
33.93769603669929
 21
18.0519018126
 31
0.0
  0
SOLID
  5
11C
330
11F
100
AcDbEntity
  8
0
  6
ByBlock
 62
     0
100
AcDbTrace
 10
33.93769603669929
 20
23.1945523532
 30
0.0
 11
33.9676960366993
 21
23.0145523532
 31
0.0
 12
33.90769603669929
 22
23.0145523532
 32
0.0
 13
33.90769603669929
 23
23.0145523532
 33
0.0
  0
MTEXT
  5
11D
330
11F
100
AcDbEntity
  8
0
  6
ByBlock
 62
     0
100
AcDbMText
 10
33.93769603669929
 20
17.8719018126
 30
0.0
 40
0.18
 41
0.0
 71
     5
 72
     1
  1
10.6453
 73
     1
 44
1.0
  0
ENDBLK
  5
16E
330
11F
100
AcDbEntity
  8
0
100
AcDbBlockEnd
  0
ENDSEC
  0
SECTION
  2
ENTITIES
  0
LINE
  5
42
330
1F
100
AcDbEntity
  8
0
  6
Continuous2
 62
     3
370
    -3
100
AcDbLine
 10
32.7250951601
 20
23.1945523532
 30
0.0
 11
26.7423293935
 21
23.1945523532
 31
0.0
  0
SPLINE
  5
43
330
1F
100
AcDbEntity
  8
0
  6
Continuous2
 62
     3
370
    -3
100
AcDbSpline
210
0.0
220
0.0
230
1.0
 70
     8
 71
     3
 72
    11
 73
     7
 74
     0
 42
0.000000001
 43
0.000001
 40
0.0
 40
0.0
 40
0.0
 40
0.0
 40
0.2796307639839121
 40
0.558838581103594
 40
0.7792038506615444
 40
1.0
 40
1.0
 40
1.0
 40
1.0
 10
32.86492437140914
 20
23.05472314184689
 30
0.0
 10
32.8622416665407
 20
23.07521620335472
 30
0.0
 10
32.85688031444612
 20
23.11617133022395
 30
0.0
 10
32.81967002017739
 20
23.16226863446813
 30
0.0
 10
32.77347441181074
 20
23.18949701301389
 30
0.0
 10
32.74123207427878
 20
23.19286614293118
 30
0.0
 10
32.72509516006146
 20
23.19455235319458
 30
0.0
  0
LINE
  5
44
330
1F
100
AcDbEntity
  8
0
  6
Continuous2
 62
     3
370
    -3
100
AcDbLine
 10
32.8649243714
 20
12.689394493
 30
0.0
 11
32.8649243714
 21
23.0547231418
 31
0.0
  0
SPLINE
  5
45
330
1F
100
AcDbEntity
  8
0
  6
Continuous2
 62
     3
370
    -3
100
AcDbSpline
210
0.0
220
0.0
230
1.0
 70
     8
 71
     3
 72
    11
 73
     7
 74
     0
 42
0.000000001
 43
0.000001
 40
0.0
 40
0.0
 40
0.0
 40
0.0
 40
0.2800763738153186
 40
0.5595418676727769
 40
0.7797142849528218
 40
1.0
 40
1.0
 40
1.0
 40
1.0
 10
32.7255574480544
 20
12.5492512719544
 30
0.0
 10
32.74607811662814
 20
12.5519579730575
 30
0.0
 10
32.78707469575131
 20
12.55736547162594
 30
0.0
 10
32.83301626396123
 20
12.59484995531063
 30
0.0
 10
32.85995390927639
 20
12.64112547096996
 30
0.0
 10
32.86326726660313
 20
12.67330206009841
 30
0.0
 10
32.86492437140914
 20
12.68939449300795
 30
0.0
  0
LINE
  5
46
330
1F
100
AcDbEntity
  8
0
  6
Continuous2
 62
     3
370
    -3
100
AcDbLine
 10
10.9073259208
 20
12.549251272
 30
0.0
 11
32.7255574481
 21
12.549251272
 31
0.0
  0
SPLINE
  5
47
330
1F
100
AcDbEntity
  8
0
  6
Continuous2
 62
     3
370
    -3
100
AcDbSpline
210
0.0
220
0.0
230
1.0
 70
     8
 71
     3
 72
    11
 73
     7
 74
     0
 42
0.000000001
 43
0.000001
 40
0.0
 40
0.0
 40
0.0
 40
0.0
 40
0.25
 40
0.5
 40
0.75
 40
1.0
 40
1.0
 40
1.0
 40
1.0
 10
10.76795842476367
 20
12.6893944974498
 30
0.0
 10
10.76795842476383
 20
12.67126526813484
 30
0.0
 10
10.77526588642787
 20
12.63469966388756
 30
0.0
 10
10.80580389035227
 20
12.58791645602193
 30
0.0
 10
10.85220657461715
 20
12.55683775362608
 30
0.0
 10
10.8890846001936
 20
12.54925127714114
 30
0.0
 10
10.90732593142196
 20
12.54925127714099
 30
0.0
  0
LINE
  5
48
330
1F
100
AcDbEntity
  8
0
  6
Continuous2
 62
     3
370
    -3
100
AcDbLine
 10
10.7679584108
 20
16.5225486288
 30
0.0
 11
10.7679584108
 21
12.689394493
 31
0.0
  0
SPLINE
  5
49
330
1F
100
AcDbEntity
  8
0
  6
Continuous2
 62
     3
370
    -3
100
AcDbSpline
210
0.0
220
0.0
230
1.0
 70
     8
 71
     3
 72
    13
 73
     9
 74
     0
 42
0.000000001
 43
0.000001
 40
-0.000000173992918
 40
-0.000000173992918
 40
-0.000000173992918
 40
-0.000000173992918
 40
0.2499999016346432
 40
0.4999999772622044
 40
0.625000015075985
 40
0.7500000528897656
 40
0.8750000907035462
 40
1.000000128517327
 40
1.000000128517327
 40
1.000000128517327
 40
1.000000128517327
 10
11.27512957253996
 20
18.1566325155444
 30
0.0
 10
11.19303558475839
 20
18.03711678085266
 30
0.0
 10
11.04665551532907
 20
17.7853120437375
 30
0.0
 10
10.91319272941527
 20
17.44675054699204
 30
0.0
 10
10.83789427729586
 20
17.16645583662244
 30
0.0
 10
10.79774788806194
 20
16.95436773652843
 30
0.0
 10
10.77342039799386
 20
16.74002291654967
 30
0.0
 10
10.76795950652588
 20
16.59490608683939
 30
0.0
 10
10.76795842476203
 20
16.52254865724163
 30
0.0
  0
SPLINE
  5
4A
330
1F
100
AcDbEntity
  8
0
  6
Continuous2
 62
     3
370
    -3
100
AcDbSpline
210
0.0
220
0.0
230
1.0
 70
     8
 71
     3
 72
    27
 73
    23
 74
     0
 42
0.000000001
 43
0.000001
 40
0.0
 40
0.0
 40
0.0
 40
0.0
 40
0.0782804279753794
 40
0.1565401271279932
 40
0.2347773603406977
 40
0.3130561254894803
 40
0.3623465140913678
 40
0.4116485962960774
 40
0.4608274248030153
 40
0.5098499723380746
 40
0.5588110602430544
 40
0.5996349472084613
 40
0.6405596773855238
 40
0.6816965635367406
 40
0.7230556995077013
 40
0.764187781959076
 40
0.8051842530737156
 40
0.8438611527473788
 40
0.8827781332266478
 40
0.92188859970382
 40
0.9609004424761938
 40
1.0
 40
1.0
 40
1.0
 40
1.0
 10
26.74232939348212
 20
23.19455235319458
 30
0.0
 10
26.30059009055464
 20
23.19144473511059
 30
0.0
 10
25.41722845820067
 20
23.18523032184644
 30
0.0
 10
24.09263255064718
 20
23.15336116370509
 30
0.0
 10
22.76914738747671
 20
23.08946659224552
 30
0.0
 10
21.61121799564442
 20
22.99613773653582
 30
0.0
 10
20.61951669406472
 20
22.88218357747937
 30
0.0
 10
19.79405566938879
 20
22.76295021864983
 30
0.0
 10
18.97454977868864
 20
22.61605854989213
 30
0.0
 10
18.16323916629323
 20
22.43768273024036
 30
0.0
 10
17.40591064123244
 20
22.23653949897235
 30
0.0
 10
16.7017194931215
 20
22.01634380958301
 30
0.0
 10
16.04927669478968
 20
21.78066660451758
 30
0.0
 10
15.40631272585208
 20
21.51211475427913
 30
0.0
 10
14.77806361950336
 20
21.20787214447403
 30
0.0
 10
14.17000047343511
 20
20.86651759399372
 30
0.0
 10
13.59860278259229
 20
20.49371810397597
 30
0.0
 10
13.06351133187561
 20
20.09102184588274
 30
0.0
 10
12.56500873329914
 20
19.65975336848134
 30
0.0
 10
12.09764935507879
 20
19.19246495761271
 30
0.0
 10
11.6617205862117
 20
18.69371155987517
 30
0.0
 10
11.40408966505808
 20
18.33579266651438
 30
0.0
 10
11.27512955189455
 20
18.15663225834409
 30
0.0
  0
CIRCLE
  5
4B
330
1F
100
AcDbEntity
  8
0
  6
Continuous2
 62
     3
370
    -3
100
AcDbCircle
 10
10.9854584248
 20
12.7667512771
 30
0.0
 40
0.0599999999999987
  0
CIRCLE
  5
4C
330
1F
100
AcDbEntity
  8
0
  6
Continuous2
 62
     3
370
    -3
100
AcDbCircle
 10
32.6474250108
 20
22.9770520107
 30
0.0
 40
0.0599999999999952
  0
CIRCLE
  5
4D
330
1F
100
AcDbEntity
  8
0
  6
Continuous2
 62
     3
370
    -3
100
AcDbCircle
 10
18.694544225
 20
22.3302979092
 30
0.0
 40
0.0599999999999987
  0
CIRCLE
  5
4E
330
1F
100
AcDbEntity
  8
0
  6
Continuous2
 62
     3
370
    -3
100
AcDbCircle
 10
32.6474250108
 20
12.7667512771
 30
0.0
 40
0.0600000000000023
  0
CIRCLE
  5
4F
330
1F
100
AcDbEntity
  8
0
  6
Continuous2
 62
     3
370
    -3
100
AcDbCircle
 10
32.6474250108
 20
19.6220589056
 30
0.0
 40
0.0600000000000023
  0
CIRCLE
  5
50
330
1F
100
AcDbEntity
  8
0
  6
Continuous2
 62
     3
370
    -3
100
AcDbCircle
 10
32.6474250108
 20
16.1220589056
 30
0.0
 40
0.0600000000000023
  0
CIRCLE
  5
51
330
1F
100
AcDbEntity
  8
0
  6
Continuous2
 62
     3
370
    -3
100
AcDbCircle
 10
18.3164417178
 20
12.7667512771
 30
0.0
 40
0.0600000000000023
  0
CIRCLE
  5
52
330
1F
100
AcDbEntity
  8
0
  6
Continuous2
 62
     3
370
    -3
100
AcDbCircle
 10
21.8164417178
 20
12.7667512771
 30
0.0
 40
0.0599999999999987
  0
CIRCLE
  5
53
330
1F
100
AcDbEntity
  8
0
  6
Continuous2
 62
     3
370
    -3
100
AcDbCircle
 10
25.3164417178
 20
12.7667512771
 30
0.0
 40
0.0599999999999987
  0
CIRCLE
  5
54
330
1F
100
AcDbEntity
  8
0
  6
Continuous2
 62
     3
370
    -3
100
AcDbCircle
 10
28.8164417178
 20
12.7667512771
 30
0.0
 40
0.0600000000000058
  0
CIRCLE
  5
5D
330
1F
100
AcDbEntity
  8
0
  6
Continuous2
 62
     3
370
    -3
100
AcDbCircle
 10
22.1575864397
 20
22.819917694
 30
0.0
 40
0.0599999999999987
  0
CIRCLE
  5
107
330
1F
100
AcDbEntity
  8
0
  6
Continuous2
 62
     3
370
    -3
100
AcDbCircle
 10
25.6538032622
 20
22.9673376826
 30
0.0
 40
0.0599999999999987
  0
CIRCLE
  5
5F
330
1F
100
AcDbEntity
  8
0
  6
Continuous2
 62
     3
370
    -3
100
AcDbCircle
 10
29.1537604412
 20
22.9770551897
 30
0.0
 40
0.0599999999999987
  0
CIRCLE
  5
60
330
1F
100
AcDbEntity
  8
0
  6
Continuous2
 62
     3
370
    -3
100
AcDbCircle
 10
15.37269611
 20
21.25047719
 30
0.0
 40
0.0600000000000023
  0
CIRCLE
  5
61
330
1F
100
AcDbEntity
  8
0
  6
Continuous2
 62
     3
370
    -3
100
AcDbCircle
 10
12.4991192332
 20
19.283807381
 30
0.0
 40
0.0600000000000023
  0
CIRCLE
  5
62
330
1F
100
AcDbEntity
  8
0
  6
Continuous2
 62
     3
370
    -3
100
AcDbCircle
 10
10.9854584248
 20
16.2604160927
 30
0.0
 40
0.0600000000000005
  0
CIRCLE
  5
63
330
1F
100
AcDbEntity
  8
0
  6
Continuous2
 62
     3
370
    -3
100
AcDbCircle
 10
14.8164417178
 20
12.7667512771
 30
0.0
 40
0.0600000000000023
  0
DIMENSION
  5
91
330
1F
100
AcDbEntity
  8
0
100
AcDbDimension
  2
*D1
 10
32.8649243714
 20
11.60584328811784
 30
0.0
 11
21.8164413911
 21
11.60584328811784
 31
0.0
 70
    32
 71
   208
 72
    46
 41
-2.164448531859125E+171
 42
-1.0
  3
Standard
100
AcDbAlignedDimension
 13
10.7679584108
 23
13.44990856034275
 33
0.0
 14
32.8649243714
 24
13.44990856034275
 34
0.0
100
AcDbRotatedDimension
  0
DIMENSION
  5
109
330
1F
100
AcDbEntity
  8
0
100
AcDbDimension
  2
*D3
 10
32.6474250108
 20
11.83316051511606
 30
0.0
 11
30.7319333643
 21
11.83316051511606
 31
0.0
 70
    32
 71
   208
 72
    46
 41
-2.164448531859125E+171
 42
-1.0
  3
Standard
100
AcDbAlignedDimension
 13
28.8164417178
 23
12.7667512771
 33
0.0
 14
32.6474250108
 24
12.7667512771
 34
0.0
100
AcDbRotatedDimension
  0
DIMENSION
  5
10A
330
1F
100
AcDbEntity
  8
0
100
AcDbDimension
  2
*D4
 10
25.3164417178
 20
11.83088540573278
 30
0.0
 11
27.0664417178
 21
11.83088540573278
 31
0.0
 70
    32
 71
   184
 72
   150
 41
30.3575333643
 42
-1.0
  3
Standard
100
AcDbAlignedDimension
 13
28.8164417178
 23
12.7667512771
 33
0.0
 14
25.3164417178
 24
12.7667512771
 34
0.0
100
AcDbRotatedDimension
  0
DIMENSION
  5
C5
330
1F
100
AcDbEntity
  8
0
100
AcDbDimension
  2
*D5
 10
14.8164417178
 20
11.81896790053594
 30
0.0
 11
12.9009500713
 21
11.81896790053594
 31
0.0
 70
    32
 71
   237
 72
   149
 41
26.6929417178
 42
-1.0
  3
Standard
100
AcDbAlignedDimension
 13
10.9854584248
 23
12.7667512771
 33
0.0
 14
14.8164417178
 24
12.7667512771
 34
0.0
100
AcDbRotatedDimension
  0
DIMENSION
  5
113
330
1F
100
AcDbEntity
  8
0
100
AcDbDimension
  2
*D6
 10
33.93769603669929
 20
23.1945523532
 30
0.0
 11
33.93769603669929
 21
17.8719018126
 31
0.0
 70
    32
 71
   208
 72
    46
 41
-2.164448531859125E+171
 42
-1.0
  3
Standard
100
AcDbAlignedDimension
 13
32.7255574481
 23
12.549251272
 33
0.0
 14
32.7250951601
 24
23.1945523532
 34
0.0
 50
90.0
100
AcDbRotatedDimension
  0
MTEXT
  5
13D
330
1F
100
AcDbEntity
  8
0
100
AcDbMText
 10
22.25624166589814
 20
14.65243764003813
 30
0.0
 40
0.5
 41
6.518262413111817
 71
     1
 72
     1
  1
All holes .150"
 73
     1
 44
1.0
  0
MTEXT
  5
13E
330
1F
100
AcDbEntity
  8
0
100
AcDbMText
 10
21.8203672163215
 20
16.96475901574824
 30
0.0
 40
0.5
 41
6.518262413111817
 71
     1
 72
     1
  1
09-22-09
 73
     1
 44
1.0
  0
ENDSEC
  0
SECTION
  2
OBJECTS
  0
DICTIONARY
  5
C
330
0
100
AcDbDictionary
281
     1
  3
ACAD_COLOR
350
6C
  3
ACAD_GROUP
350
D
  3
ACAD_LAYOUT
350
1A
  3
ACAD_MATERIAL
350
6B
  3
ACAD_MLEADERSTYLE
350
6A
  3
ACAD_MLINESTYLE
350
17
  3
ACAD_PLOTSETTINGS
350
19
  3
ACAD_PLOTSTYLENAME
350
E
  3
ACAD_SCALELIST
350
99
  3
ACAD_TABLESTYLE
350
92
  3
ACAD_VISUALSTYLE
350
2A
  3
ACDBHEADERROUNDTRIPXREC
350
171
  3
AcDbVariableDictionary
350
59
  3
DWGPROPS
350
174
  0
DICTIONARY
  5
16F
330
1F
100
AcDbDictionary
280
     1
281
     1
  0
DICTIONARY
  5
6C
102
{ACAD_REACTORS
330
C
102
}
330
C
100
AcDbDictionary
281
     1
  0
DICTIONARY
  5
D
102
{ACAD_REACTORS
330
C
102
}
330
C
100
AcDbDictionary
281
     1
  0
DICTIONARY
  5
1A
102
{ACAD_REACTORS
330
C
102
}
330
C
100
AcDbDictionary
281
     1
  3
Layout1
350
74
  3
Layout2
350
26
  3
Model
350
22
  0
DICTIONARY
  5
6B
102
{ACAD_REACTORS
330
C
102
}
330
C
100
AcDbDictionary
281
     1
  0
DICTIONARY
  5
6A
102
{ACAD_REACTORS
330
C
102
}
330
C
100
AcDbDictionary
281
     1
  0
DICTIONARY
  5
17
102
{ACAD_REACTORS
330
C
102
}
330
C
100
AcDbDictionary
281
     1
  3
Standard
350
18
  0
DICTIONARY
  5
19
102
{ACAD_REACTORS
330
C
102
}
330
C
100
AcDbDictionary
281
     1
  0
ACDBDICTIONARYWDFLT
  5
E
102
{ACAD_REACTORS
330
C
102
}
330
C
100
AcDbDictionary
281
     1
  3
Normal
350
F
100
AcDbDictionaryWithDefault
340
F
  0
DICTIONARY
  5
99
102
{ACAD_REACTORS
330
C
102
}
330
C
100
AcDbDictionary
281
     1
  3
A0
350
D8
  3
A1
350
6D
  3
A2
350
6E
  3
A3
350
6F
  3
A4
350
70
  3
A5
350
71
  3
A6
350
72
  3
A7
350
D9
  3
A8
350
DA
  3
A9
350
DB
  3
B0
350
DC
  3
B1
350
77
  3
B2
350
78
  3
B3
350
79
  3
B4
350
7A
  3
B5
350
7B
  3
B6
350
7C
  3
B7
350
7D
  3
B8
350
7E
  3
B9
350
7F
  3
C0
350
80
  3
C1
350
81
  3
C2
350
82
  3
C3
350
83
  3
C4
350
84
  3
C5
350
85
  3
C6
350
86
  3
C7
350
87
  3
C8
350
88
  3
C9
350
89
  3
D0
350
8A
  3
D1
350
8B
  3
D2
350
8C
  0
DICTIONARY
  5
92
102
{ACAD_REACTORS
330
C
102
}
330
C
100
AcDbDictionary
281
     1
  0
DICTIONARY
  5
2A
102
{ACAD_REACTORS
330
C
102
}
330
C
100
AcDbDictionary
281
     1
  3
2DWIREFRAME
350
2F
  3
3D HIDDEN
350
31
  3
3DWIREFRAME
350
30
  3
BASIC
350
32
  3
BRIGHTEN
350
36
  3
COLORCHANGE
350
3A
  3
CONCEPTUAL
350
34
  3
DIM
350
35
  3
FACEPATTERN
350
39
  3
FLAT
350
2B
  3
FLATWITHEDGES
350
2C
  3
GOURAUD
350
2D
  3
GOURAUDWITHEDGES
350
2E
  3
LINEPATTERN
350
38
  3
REALISTIC
350
33
  3
THICKEN
350
37
  0
DICTIONARY
  5
171
102
{ACAD_REACTORS
330
C
102
}
330
C
100
AcDbDictionary
281
     1
  3
COLORDICT
350
172
  3
MATERIALDICT
350
173
  0
DICTIONARY
  5
59
102
{ACAD_REACTORS
330
C
102
}
330
C
100
AcDbDictionary
281
     1
  3
CANNOSCALE
350
170
  3
CTABLESTYLE
350
98
  3
DIMASSOC
350
8E
  3
HIDETEXT
350
126
  0
XRECORD
  5
174
102
{ACAD_REACTORS
330
C
102
}
330
C
100
AcDbXrecord
280
     1
  1
DWGPROPS COOKIE
  2

  3

  4

  6
File was created by Mastercam X4
  7

  8
Cliff
  9

300
=
301
=
302
=
303
=
304
=
305
=
306
=
307
=
308
=
309
=
 40
0.0
 41
2453353.717125822
 42
2455097.559882095
  1

 90
        0
  0
LAYOUT
  5
74
102
{ACAD_REACTORS
330
1A
102
}
330
1A
100
AcDbPlotSettings
  1

  2
none_device
  4
ISO_C5_(229.00_x_162.00_MM)
  6

 40
0.0
 41
0.0
 42
0.0
 43
0.0
 44
229.0
 45
162.0
 46
0.0
 47
0.0
 48
0.0
 49
0.0
140
0.0
141
0.0
142
1.0
143
1.0
 70
   688
 72
     1
 73
     0
 74
     5
  7

 75
    16
147
1.0
148
0.0
149
0.0
100
AcDbLayout
  1
Layout1
 70
     1
 71
     1
 10
0.0
 20
0.0
 11
12.0
 21
9.0
 12
0.0
 22
0.0
 32
0.0
 14
1.000000000000000E+20
 24
1.000000000000000E+20
 34
1.000000000000000E+20
 15
-1.000000000000000E+20
 25
-1.000000000000000E+20
 35
-1.000000000000000E+20
146
0.0
 13
0.0
 23
0.0
 33
0.0
 16
1.0
 26
0.0
 36
0.0
 17
0.0
 27
1.0
 37
0.0
 76
     0
330
73
  0
LAYOUT
  5
26
102
{ACAD_REACTORS
330
1A
102
}
330
1A
100
AcDbPlotSettings
  1

  2
none_device
  4
ISO_C5_(229.00_x_162.00_MM)
  6

 40
0.0
 41
0.0
 42
0.0
 43
0.0
 44
229.0
 45
162.0
 46
0.0
 47
0.0
 48
0.0
 49
0.0
140
0.0
141
0.0
142
1.0
143
1.0
 70
   688
 72
     1
 73
     0
 74
     5
  7

 75
    16
147
1.0
148
0.0
149
0.0
100
AcDbLayout
  1
Layout2
 70
     1
 71
     2
 10
0.0
 20
0.0
 11
0.0
 21
0.0
 12
0.0
 22
0.0
 32
0.0
 14
0.0
 24
0.0
 34
0.0
 15
0.0
 25
0.0
 35
0.0
146
0.0
 13
0.0
 23
0.0
 33
0.0
 16
1.0
 26
0.0
 36
0.0
 17
0.0
 27
1.0
 37
0.0
 76
     0
330
23
  0
LAYOUT
  5
22
102
{ACAD_REACTORS
330
1A
102
}
330
1A
100
AcDbPlotSettings
  1

  2
none_device
  4
ISO_C5_(229.00_x_162.00_MM)
  6

 40
0.0
 41
0.0
 42
0.0
 43
0.0
 44
229.0
 45
162.0
 46
0.0
 47
0.0
 48
0.0
 49
0.0
140
0.0
141
0.0
142
1.0
143
1.0
 70
 11952
 72
     1
 73
     0
 74
     0
  7

 75
    16
147
1.0
148
0.0
149
0.0
100
AcDbLayout
  1
Model
 70
     1
 71
     0
 10
0.0
 20
0.0
 11
12.0
 21
9.0
 12
0.0
 22
0.0
 32
0.0
 14
10.26798838876022
 24
11.42584328811784
 34
0.0
 15
34.4326960366993
 25
23.69455235319458
 35
0.0
146
0.0
 13
0.0
 23
0.0
 33
0.0
 16
1.0
 26
0.0
 36
0.0
 17
0.0
 27
1.0
 37
0.0
 76
     0
330
1F
331
97
  0
MLINESTYLE
  5
18
102
{ACAD_REACTORS
330
17
102
}
330
17
100
AcDbMlineStyle
  2
Standard
 70
     0
  3

 62
   256
 51
90.0
 52
90.0
 71
     2
 49
0.5
 62
   256
  6
BYLAYER
 49
-0.5
 62
   256
  6
BYLAYER
  0
ACDBPLACEHOLDER
  5
F
102
{ACAD_REACTORS
330
E
102
}
330
E
  0
SCALE
  5
D8
102
{ACAD_REACTORS
330
99
102
}
330
99
100
AcDbScale
 70
     0
300
1:1
140
1.0
141
1.0
290
     1
  0
SCALE
  5
6D
102
{ACAD_REACTORS
330
99
102
}
330
99
100
AcDbScale
 70
     0
300
1:2
140
1.0
141
2.0
290
     0
  0
SCALE
  5
6E
102
{ACAD_REACTORS
330
99
102
}
330
99
100
AcDbScale
 70
     0
300
1:4
140
1.0
141
4.0
290
     0
  0
SCALE
  5
6F
102
{ACAD_REACTORS
330
99
102
}
330
99
100
AcDbScale
 70
     0
300
1:5
140
1.0
141
5.0
290
     0
  0
SCALE
  5
70
102
{ACAD_REACTORS
330
99
102
}
330
99
100
AcDbScale
 70
     0
300
1:8
140
1.0
141
8.0
290
     0
  0
SCALE
  5
71
102
{ACAD_REACTORS
330
99
102
}
330
99
100
AcDbScale
 70
     0
300
1:10
140
1.0
141
10.0
290
     0
  0
SCALE
  5
72
102
{ACAD_REACTORS
330
99
102
}
330
99
100
AcDbScale
 70
     0
300
1:16
140
1.0
141
16.0
290
     0
  0
SCALE
  5
D9
102
{ACAD_REACTORS
330
99
102
}
330
99
100
AcDbScale
 70
     0
300
1:20
140
1.0
141
20.0
290
     0
  0
SCALE
  5
DA
102
{ACAD_REACTORS
330
99
102
}
330
99
100
AcDbScale
 70
     0
300
1:30
140
1.0
141
30.0
290
     0
  0
SCALE
  5
DB
102
{ACAD_REACTORS
330
99
102
}
330
99
100
AcDbScale
 70
     0
300
1:40
140
1.0
141
40.0
290
     0
  0
SCALE
  5
DC
102
{ACAD_REACTORS
330
99
102
}
330
99
100
AcDbScale
 70
     0
300
1:50
140
1.0
141
50.0
290
     0
  0
SCALE
  5
77
102
{ACAD_REACTORS
330
99
102
}
330
99
100
AcDbScale
 70
     0
300
1:100
140
1.0
141
100.0
290
     0
  0
SCALE
  5
78
102
{ACAD_REACTORS
330
99
102
}
330
99
100
AcDbScale
 70
     0
300
2:1
140
2.0
141
1.0
290
     0
  0
SCALE
  5
79
102
{ACAD_REACTORS
330
99
102
}
330
99
100
AcDbScale
 70
     0
300
4:1
140
4.0
141
1.0
290
     0
  0
SCALE
  5
7A
102
{ACAD_REACTORS
330
99
102
}
330
99
100
AcDbScale
 70
     0
300
8:1
140
8.0
141
1.0
290
     0
  0
SCALE
  5
7B
102
{ACAD_REACTORS
330
99
102
}
330
99
100
AcDbScale
 70
     0
300
10:1
140
10.0
141
1.0
290
     0
  0
SCALE
  5
7C
102
{ACAD_REACTORS
330
99
102
}
330
99
100
AcDbScale
 70
     0
300
100:1
140
100.0
141
1.0
290
     0
  0
SCALE
  5
7D
102
{ACAD_REACTORS
330
99
102
}
330
99
100
AcDbScale
 70
     0
300
1/128" = 1'-0"
140
0.0078125
141
12.0
290
     0
  0
SCALE
  5
7E
102
{ACAD_REACTORS
330
99
102
}
330
99
100
AcDbScale
 70
     0
300
1/64" = 1'-0"
140
0.015625
141
12.0
290
     0
  0
SCALE
  5
7F
102
{ACAD_REACTORS
330
99
102
}
330
99
100
AcDbScale
 70
     0
300
1/32" = 1'-0"
140
0.03125
141
12.0
290
     0
  0
SCALE
  5
80
102
{ACAD_REACTORS
330
99
102
}
330
99
100
AcDbScale
 70
     0
300
1/16" = 1'-0"
140
0.0625
141
12.0
290
     0
  0
SCALE
  5
81
102
{ACAD_REACTORS
330
99
102
}
330
99
100
AcDbScale
 70
     0
300
3/32" = 1'-0"
140
0.09375
141
12.0
290
     0
  0
SCALE
  5
82
102
{ACAD_REACTORS
330
99
102
}
330
99
100
AcDbScale
 70
     0
300
1/8" = 1'-0"
140
0.125
141
12.0
290
     0
  0
SCALE
  5
83
102
{ACAD_REACTORS
330
99
102
}
330
99
100
AcDbScale
 70
     0
300
3/16" = 1'-0"
140
0.1875
141
12.0
290
     0
  0
SCALE
  5
84
102
{ACAD_REACTORS
330
99
102
}
330
99
100
AcDbScale
 70
     0
300
1/4" = 1'-0"
140
0.25
141
12.0
290
     0
  0
SCALE
  5
85
102
{ACAD_REACTORS
330
99
102
}
330
99
100
AcDbScale
 70
     0
300
3/8" = 1'-0"
140
0.375
141
12.0
290
     0
  0
SCALE
  5
86
102
{ACAD_REACTORS
330
99
102
}
330
99
100
AcDbScale
 70
     0
300
1/2" = 1'-0"
140
0.5
141
12.0
290
     0
  0
SCALE
  5
87
102
{ACAD_REACTORS
330
99
102
}
330
99
100
AcDbScale
 70
     0
300
3/4" = 1'-0"
140
0.75
141
12.0
290
     0
  0
SCALE
  5
88
102
{ACAD_REACTORS
330
99
102
}
330
99
100
AcDbScale
 70
     0
300
1" = 1'-0"
140
1.0
141
12.0
290
     0
  0
SCALE
  5
89
102
{ACAD_REACTORS
330
99
102
}
330
99
100
AcDbScale
 70
     0
300
1-1/2" = 1'-0"
140
1.5
141
12.0
290
     0
  0
SCALE
  5
8A
102
{ACAD_REACTORS
330
99
102
}
330
99
100
AcDbScale
 70
     0
300
3" = 1'-0"
140
3.0
141
12.0
290
     0
  0
SCALE
  5
8B
102
{ACAD_REACTORS
330
99
102
}
330
99
100
AcDbScale
 70
     0
300
6" = 1'-0"
140
6.0
141
12.0
290
     0
  0
SCALE
  5
8C
102
{ACAD_REACTORS
330
99
102
}
330
99
100
AcDbScale
 70
     0
300
1'-0" = 1'-0"
140
12.0
141
12.0
290
     0
  0
VISUALSTYLE
  5
2F
102
{ACAD_REACTORS
330
2A
102
}
330
2A
100
AcDbVisualStyle
  2
2dWireframe
 70
     4
 71
     0
 72
     2
 73
     0
 90
        0
 40
-0.6
 41
-30.0
 62
     5
 63
     7
 74
     1
 91
        4
 64
     7
 65
   257
 75
     1
175
     1
 42
1.0
 92
        0
 66
   257
 43
1.0
 76
     1
 77
     6
 78
     2
 67
     7
 79
     5
170
     0
171
     0
290
     1
174
     0
 93
        1
 44
0.0
173
     0
291
     1
 45
0.0
1001
ACAD
1000
AcDbSavedByObjectVersion
1070
     0
  0
VISUALSTYLE
  5
31
102
{ACAD_REACTORS
330
2A
102
}
330
2A
100
AcDbVisualStyle
  2
3D Hidden
 70
     6
 71
     1
 72
     2
 73
     2
 90
        0
 40
-0.6
 41
-30.0
 62
     5
 63
     7
 74
     2
 91
        2
 64
     7
 65
   257
 75
     2
175
     1
 42
40.0
 92
        0
 66
   257
 43
1.0
 76
     1
 77
     6
 78
     2
 67
     7
 79
     3
170
     0
171
     0
290
     1
174
     0
 93
        1
 44
0.0
173
     0
291
     1
 45
0.0
1001
ACAD
1000
AcDbSavedByObjectVersion
1070
     0
  0
VISUALSTYLE
  5
30
102
{ACAD_REACTORS
330
2A
102
}
330
2A
100
AcDbVisualStyle
  2
3dWireframe
 70
     5
 71
     0
 72
     2
 73
     0
 90
        0
 40
-0.6
 41
-30.0
 62
     5
 63
     7
 74
     1
 91
        4
 64
     7
 65
   257
 75
     1
175
     1
 42
1.0
 92
        0
 66
   257
 43
1.0
 76
     1
 77
     6
 78
     2
 67
     7
 79
     5
170
     0
171
     0
290
     1
174
     0
 93
        1
 44
0.0
173
     0
291
     1
 45
0.0
1001
ACAD
1000
AcDbSavedByObjectVersion
1070
     0
  0
VISUALSTYLE
  5
32
102
{ACAD_REACTORS
330
2A
102
}
330
2A
100
AcDbVisualStyle
  2
Basic
 70
     7
 71
     1
 72
     0
 73
     1
 90
        0
 40
-0.6
 41
-30.0
 62
     5
 63
     7
 74
     0
 91
        4
 64
     7
 65
   257
 75
     1
175
     1
 42
1.0
 92
        8
 66
     7
 43
1.0
 76
     1
 77
     6
 78
     2
 67
     7
 79
     5
170
     0
171
     0
290
     1
174
     0
 93
        1
 44
0.0
173
     0
291
     1
 45
0.0
1001
ACAD
1000
AcDbSavedByObjectVersion
1070
     0
  0
VISUALSTYLE
  5
36
102
{ACAD_REACTORS
330
2A
102
}
330
2A
100
AcDbVisualStyle
  2
Brighten
 70
    12
 71
     2
 72
     2
 73
     0
 90
        0
 40
-0.6
 41
-30.0
 62
     5
 63
     7
 74
     1
 91
        4
 64
     7
 65
   257
 75
     1
175
     1
 42
1.0
 92
        8
 66
     7
 43
1.0
 76
     1
 77
     6
 78
     2
 67
     7
 79
     5
170
     0
171
     0
290
     1
174
     0
 93
        1
 44
50.0
173
     0
291
     1
 45
0.0
1001
ACAD
1000
AcDbSavedByObjectVersion
1070
     0
  0
VISUALSTYLE
  5
3A
102
{ACAD_REACTORS
330
2A
102
}
330
2A
100
AcDbVisualStyle
  2
ColorChange
 70
    16
 71
     2
 72
     2
 73
     3
 90
        0
 40
-0.6
 41
-30.0
 62
     5
 63
     8
 74
     1
 91
        4
 64
     7
 65
   257
 75
     1
175
     1
 42
1.0
 92
        8
 66
     8
 43
1.0
 76
     1
 77
     6
 78
     2
 67
     7
 79
     5
170
     0
171
     0
290
     1
174
     0
 93
        1
 44
0.0
173
     0
291
     1
 45
0.0
1001
ACAD
1000
AcDbSavedByObjectVersion
1070
     0
  0
VISUALSTYLE
  5
34
102
{ACAD_REACTORS
330
2A
102
}
330
2A
100
AcDbVisualStyle
  2
Conceptual
 70
     9
 71
     3
 72
     2
 73
     0
 90
        0
 40
-0.6
 41
-30.0
 62
     5
 63
     7
 74
     2
 91
        2
 64
     7
 65
   257
 75
     1
175
     1
 42
40.0
 92
        8
 66
     7
 43
1.0
 76
     1
 77
     6
 78
     2
 67
     7
 79
     3
170
     0
171
     0
290
     1
174
     0
 93
        1
 44
0.0
173
     0
291
     1
 45
0.0
1001
ACAD
1000
AcDbSavedByObjectVersion
1070
     0
  0
VISUALSTYLE
  5
35
102
{ACAD_REACTORS
330
2A
102
}
330
2A
100
AcDbVisualStyle
  2
Dim
 70
    11
 71
     2
 72
     2
 73
     0
 90
        0
 40
-0.6
 41
-30.0
 62
     5
 63
     7
 74
     1
 91
        4
 64
     7
 65
   257
 75
     1
175
     1
 42
1.0
 92
        8
 66
     7
 43
1.0
 76
     1
 77
     6
 78
     2
 67
     7
 79
     5
170
     0
171
     0
290
     1
174
     0
 93
        1
 44
-50.0
173
     0
291
     1
 45
0.0
1001
ACAD
1000
AcDbSavedByObjectVersion
1070
     0
  0
VISUALSTYLE
  5
39
102
{ACAD_REACTORS
330
2A
102
}
330
2A
100
AcDbVisualStyle
  2
Facepattern
 70
    15
 71
     2
 72
     2
 73
     0
 90
        0
 40
-0.6
 41
-30.0
 62
     5
 63
     7
 74
     1
 91
        4
 64
     7
 65
   257
 75
     1
175
     1
 42
1.0
 92
        8
 66
     7
 43
1.0
 76
     1
 77
     6
 78
     2
 67
     7
 79
     5
170
     0
171
     0
290
     1
174
     0
 93
        1
 44
0.0
173
     0
291
     1
 45
0.0
1001
ACAD
1000
AcDbSavedByObjectVersion
1070
     0
  0
VISUALSTYLE
  5
2B
102
{ACAD_REACTORS
330
2A
102
}
330
2A
100
AcDbVisualStyle
  2
Flat
 70
     0
 71
     2
 72
     1
 73
     1
 90
        2
 40
-0.6
 41
30.0
 62
     5
 63
     7
 74
     0
 91
        4
 64
     7
 65
   257
 75
     1
175
     1
 42
1.0
 92
        8
 66
     7
 43
1.0
 76
     1
 77
     6
 78
     2
 67
     7
 79
     5
170
     0
171
     0
290
     1
174
     0
 93
       13
 44
0.0
173
     0
291
     1
 45
0.0
1001
ACAD
1000
AcDbSavedByObjectVersion
1070
     0
  0
VISUALSTYLE
  5
2C
102
{ACAD_REACTORS
330
2A
102
}
330
2A
100
AcDbVisualStyle
  2
FlatWithEdges
 70
     1
 71
     2
 72
     1
 73
     1
 90
        2
 40
-0.6
 41
30.0
 62
     5
 63
     7
 74
     1
 91
        4
 64
     7
 65
   257
 75
     1
175
     1
 42
1.0
 92
        0
 66
   257
 43
1.0
 76
     1
 77
     6
 78
     2
 67
     7
 79
     5
170
     0
171
     0
290
     1
174
     0
 93
       13
 44
0.0
173
     0
291
     1
 45
0.0
1001
ACAD
1000
AcDbSavedByObjectVersion
1070
     0
  0
VISUALSTYLE
  5
2D
102
{ACAD_REACTORS
330
2A
102
}
330
2A
100
AcDbVisualStyle
  2
Gouraud
 70
     2
 71
     2
 72
     2
 73
     1
 90
        2
 40
-0.6
 41
30.0
 62
     5
 63
     7
 74
     0
 91
        4
 64
     7
 65
   257
 75
     1
175
     1
 42
1.0
 92
        0
 66
     7
 43
1.0
 76
     1
 77
     6
 78
     2
 67
     7
 79
     5
170
     0
171
     0
290
     1
174
     0
 93
       13
 44
0.0
173
     0
291
     1
 45
0.0
1001
ACAD
1000
AcDbSavedByObjectVersion
1070
     0
  0
VISUALSTYLE
  5
2E
102
{ACAD_REACTORS
330
2A
102
}
330
2A
100
AcDbVisualStyle
  2
GouraudWithEdges
 70
     3
 71
     2
 72
     2
 73
     1
 90
        2
 40
-0.6
 41
30.0
 62
     5
 63
     7
 74
     1
 91
        4
 64
     7
 65
   257
 75
     1
175
     1
 42
1.0
 92
        0
 66
   257
 43
1.0
 76
     1
 77
     6
 78
     2
 67
     7
 79
     5
170
     0
171
     0
290
     1
174
     0
 93
       13
 44
0.0
173
     0
291
     1
 45
0.0
1001
ACAD
1000
AcDbSavedByObjectVersion
1070
     0
  0
VISUALSTYLE
  5
38
102
{ACAD_REACTORS
330
2A
102
}
330
2A
100
AcDbVisualStyle
  2
Linepattern
 70
    14
 71
     2
 72
     2
 73
     0
 90
        0
 40
-0.6
 41
-30.0
 62
     5
 63
     7
 74
     1
 91
        4
 64
     7
 65
   257
 75
     7
175
     7
 42
1.0
 92
        8
 66
     7
 43
1.0
 76
     1
 77
     6
 78
     2
 67
     7
 79
     5
170
     0
171
     0
290
     1
174
     0
 93
        1
 44
0.0
173
     0
291
     1
 45
0.0
1001
ACAD
1000
AcDbSavedByObjectVersion
1070
     0
  0
VISUALSTYLE
  5
33
102
{ACAD_REACTORS
330
2A
102
}
330
2A
100
AcDbVisualStyle
  2
Realistic
 70
     8
 71
     2
 72
     2
 73
     0
 90
        0
 40
-0.6
 41
-30.0
 62
     5
 63
     7
 74
     1
 91
        0
 64
     7
 65
   257
 75
     1
175
     1
 42
1.0
 92
        8
 66
     8
 43
1.0
 76
     1
 77
     6
 78
     2
 67
     7
 79
     5
170
     0
171
     0
290
     1
174
     0
 93
       13
 44
0.0
173
     0
291
     1
 45
0.0
1001
ACAD
1000
AcDbSavedByObjectVersion
1070
     0
  0
VISUALSTYLE
  5
37
102
{ACAD_REACTORS
330
2A
102
}
330
2A
100
AcDbVisualStyle
  2
Thicken
 70
    13
 71
     2
 72
     2
 73
     0
 90
        0
 40
-0.6
 41
-30.0
 62
     5
 63
     7
 74
     1
 91
        4
 64
     7
 65
   257
 75
     1
175
     1
 42
1.0
 92
       12
 66
     7
 43
1.0
 76
     1
 77
     6
 78
     2
 67
     7
 79
     5
170
     0
171
     0
290
     1
174
     0
 93
        1
 44
0.0
173
     0
291
     1
 45
0.0
1001
ACAD
1000
AcDbSavedByObjectVersion
1070
     0
  0
XRECORD
  5
172
102
{ACAD_REACTORS
330
171
102
}
330
171
100
AcDbXrecord
280
     1
340
6C
  0
XRECORD
  5
173
102
{ACAD_REACTORS
330
171
102
}
330
171
100
AcDbXrecord
280
     1
340
6B
  0
DICTIONARYVAR
  5
170
102
{ACAD_REACTORS
330
59
102
}
330
59
100
DictionaryVariables
280
     0
  1
1:1
  0
DICTIONARYVAR
  5
98
102
{ACAD_REACTORS
330
59
102
}
330
59
100
DictionaryVariables
280
     0
  1
Standard
  0
DICTIONARYVAR
  5
8E
102
{ACAD_REACTORS
330
59
102
}
330
59
100
DictionaryVariables
280
     0
  1
2
  0
DICTIONARYVAR
  5
126
102
{ACAD_REACTORS
330
59
330
91
330
109
330
10A
330
C5
102
}
330
59
100
DictionaryVariables
280
     0
  1
1
  0
ENDSEC
  0
EOF
